Торрент файл
скачать торрент магнет ссылка Добавлен: 16 дек 2015, 12:38
Размер: 4.53 ГБ
Сидеров: 231
Личеров: 25
Автор

СообщениеДобавлено: 16 дек 2015, 12:38 

Не в сети
Супермодератор
Аватара пользователя
Дата регистрации:
15 фев 2012, 16:44
Возраст: 29
Спасибо: 7379 / 2147
Сообщения: 76077
Год выхода: 2003
Жанр: драма, мелодрама
Режиссер: Гай Дженкин

В ролях: Джессика Альба, Хью Дэнси, Бренда Блетин, Боб Хоскинс, Кристофер Линг Ли Йен, Юникс Инокян, Майкл Джессинг Лангги, Мано Маниам, К.К. Могги, Эмили Мортимер

О фильме:
Прекрасная островитянка становится добровольной наложницей английского чиновника. Девушек, подобных нашей героине, называют «интимными словарями»: они помогают колонистам осваивать местный язык и обычаи — в постели. Но на этот раз между обворожительным «интимным словарем» и ее хозяином вспыхивает любовь.

К несчастью, влюбленных безжалостно разлучают. Спустя год молодой человек возвращается из Англии уже с женой, но прошлое вторгается в его жизнь и все меняет…



Страна: США, Малайзия, Германия
Студия: Fine Line Features, New Line Productions Inc.
Продолжительность: 01:49:17
Перевод: Профессиональный (двухголосый, закадровый) Premier Digital

Файл
Формат: Matroska
Видео: 1912x1076 at 23.976 fps, MPEG-4 AVC, ~5000 kbps avg
Аудио#1: Russian: 48 kHz, AC3, 3/2 (L,C,R,l,r) + LFE ch, ~448.00 kbps avg |Двухголосый закадровый, Premier Digital|
Аудио#2: English: 48 kHz, AC3, 3/2 (L,C,R,l,r) + LFE ch, ~384.00 kbps avg
Субтитры: Russian, English

Общее
Уникальный идентификатор : 234854857333013555175955902018230834550 (0xB0AF66759ED013788769711273F65576)
Полное имя : The Sleeping Dictionary 2003 WEB-DL 1080p.mkv
Формат : Matroska
Версия формата : Version 4 / Version 2
Размер файла : 4,53 Гбайт
Продолжительность : 1 ч. 49 м.
Общий поток : 5931 Кбит/сек
Дата кодирования : UTC 2015-12-15 09:09:35
Программа кодирования : mkvmerge v6.1.0 ('Old Devil') built on Mar 2 2013 14:32:37
Библиотека кодирования : libebml v1.3.0 + libmatroska v1.4.0

Видео
Идентификатор : 1
Формат : AVC
Формат/Информация : Advanced Video Codec
Профиль формата : High@L4
Параметр CABAC формата : Да
Параметр ReFrames формата : 4 кадра
Идентификатор кодека : V_MPEG4/ISO/AVC
Продолжительность : 1 ч. 49 м.
Битрейт : 4981 Кбит/сек
Ширина : 1912 пикселей
Высота : 1076 пикселей
Соотношение сторон : 16:9
Режим частоты кадров : Постоянный
Частота кадров : 23,976 кадра/сек
Цветовое пространство : YUV
Субдискретизация насыщенности : 4:2:0
Битовая глубина : 8 бит
Тип развёртки : Прогрессивная
Бит/(Пиксели*Кадры) : 0.101
Размер потока : 3,80 Гбайт (84%)
Язык : English
Default : Да
Forced : Нет
Цветовой диапазон : Limited
Основные цвета : BT.709
Характеристики трансфера : BT.709
Коэффициенты матрицы : BT.709

Аудио #1
Идентификатор : 2
Формат : AC-3
Формат/Информация : Audio Coding 3
Расширение режима : CM (complete main)
Параметр Endianness формата : Big
Идентификатор кодека : A_AC3
Продолжительность : 1 ч. 49 м.
Вид битрейта : Постоянный
Битрейт : 448 Кбит/сек
Каналы : 6 каналов
Расположение каналов : Front: L C R, Side: L R, LFE
Частота : 48,0 КГц
Метод сжатия : С потерями
Размер потока : 350 Мбайт (8%)
Язык : Russian
Default : Да
Forced : Нет

Аудио #2
Идентификатор : 3
Формат : AC-3
Формат/Информация : Audio Coding 3
Расширение режима : CM (complete main)
Параметр Endianness формата : Big
Идентификатор кодека : A_AC3
Продолжительность : 1 ч. 49 м.
Вид битрейта : Постоянный
Битрейт : 384 Кбит/сек
Каналы : 6 каналов
Расположение каналов : Front: L C R, Side: L R, LFE
Частота : 48,0 КГц
Метод сжатия : С потерями
Размер потока : 300 Мбайт (6%)
Язык : English
Default : Нет
Forced : Нет

Текст #1
Идентификатор : 4
Формат : UTF-8
Идентификатор кодека : S_TEXT/UTF8
Идентификатор кодека/Информация : UTF-8 Plain Text
Язык : Russian
Default : Нет
Forced : Нет

Текст #2
Идентификатор : 5
Формат : UTF-8
Идентификатор кодека : S_TEXT/UTF8
Идентификатор кодека/Информация : UTF-8 Plain Text
Язык : English
Default : Нет
Forced : Нет

Меню
00:00:00.000 : en:Welcome to Sarawak/Title
00:05:20.000 : en:To Refuse Is to Insult
00:12:19.000 : en:How to Learn the Language
00:17:34.000 : en:Playing a Joke on Truscott
00:20:05.000 : en:A Chance at Reemployment
00:24:02.000 : en:The Dance of an Englishman
00:26:58.000 : en:Education Like Oxygen
00:30:54.000 : en:The School of Love
00:36:49.000 : en:An English Officer's Duty
00:40:48.000 : en:Sorting Out Disputes
00:43:45.000 : en:A Reasonably Sudden Offer
00:47:47.000 : en:Mystery Epidemic
00:52:23.000 : en:Tell Them
00:55:35.000 : en:Marriage Plans
00:57:12.000 : en:The Way Things Are Done
01:01:39.000 : en:One Year Later/Start Over
01:05:33.000 : en:All About Selima
01:08:17.000 : en:How to Judge a Man
01:11:26.000 : en:I Want to See My Son
01:14:48.000 : en:Wrecking Another Generation
01:19:35.000 : en:Judge, Jury and Liberator
01:24:58.000 : en:Cecil's Announcement
01:28:15.000 : en:Happy Enough
01:33:04.000 : en:The Many Long Goodbyes
01:37:28.000 : en:The Hunt for John Truscott
01:41:21.000 : en:Moving On
01:44:19.000 : en:End Credits




_________________
Проголосуй за трекер Открытый торрент трекер - RUS-MEDIA.ORG

Проголосуй Открытый торрент трекер - RUS-MEDIA.ORG


Вернуться к началу
 Профиль Отправить личное сообщение  
 
   Похожие торренты   Автор   Торрент   Размер 
В этой теме нет новых непрочитанных сообщений. Интимный словарь / The Sleeping Dictionary [драма, мелодрама, 2003] WEB-DL 1080p, Dvo

salma3

22 | 9

9.14 ГБ

В этой теме нет новых непрочитанных сообщений. Интимный словарь / The Sleeping Dictionary [драма, мелодрама, 2003] WEB-DLRip, Dvo+Sub

salma3

18 | 1

2.18 ГБ

В этой теме нет новых непрочитанных сообщений. Пока ты спал / While You Were Sleeping [драма, мелодрама, комедия, 1995] BDRip 1080p, Mvo

salma3

0 | 0

9.45 ГБ

В этой теме нет новых непрочитанных сообщений. Пока ты спал / While You Were Sleeping [драма, мелодрама, комедия, 1995] BDRemux 1080p, Mvo

salma3

0 | 0

35.11 ГБ

В этой теме нет новых непрочитанных сообщений. Интимный дневник / The Pillow Book [Триллер, драма, мелодрама, 1996] ВDRip, Dvo [НТВ]

salma3

69 | 15

1.46 ГБ

В этой теме нет новых непрочитанных сообщений. Пока ты спал / While You Were Sleeping [драма, мелодрама, комедия, 1995] BDRip 720p, Mvo

salma3

0 | 0

5.75 ГБ

В этой теме нет новых непрочитанных сообщений. Комната / The Room [драма, мелодрама, 2003] BDRemux 1080p, Mvo

salma3

11 | 4

11.04 ГБ


Начать новую тему Ответить на тему  [ 1 сообщение ] 




Для Мосгорсуда, Роскомнадзора и рекламодателей:: mosgorsud-torrent[собачка]yandex.ru
cron