Торрент файл
скачать торрент магнет ссылка Добавлен: 15 дек 2015, 21:05
Размер: 9.51 ГБ
Сидеров: 114
Личеров: 14
Автор

СообщениеДобавлено: 15 дек 2015, 21:05 

Не в сети
Супермодератор
Аватара пользователя
Дата регистрации:
15 фев 2012, 16:44
Возраст: 28
Спасибо: 7203 / 2147
Сообщения: 65002
Год выпуска: 2008
Жанр: драма, мелодрама, криминал
Выпущено: США, Аргентина
Режиссер: Гильермо Арриага
В ролях: Шарлиз Терон , Ким Бейсингер , Дженнифер Лоуренс , Жоаким ди Алмейда , Дж.Д. Пардо , Хосе Мария Яспик , Тесса Иа , Дэниэл Пино , Робин Танни , Джон Корбетт , Грэй Юбэнк , Фернанда Ромеро
Перевод: Профессиональный многоголосый, Профессиональный (двухголосый)

Сюжет фильма:
Сильвия страдает от грехов прошлого... Юная Марианна пытается спасти разбитую вдребезги любовь своих родителей... Джина и Ник пылают в страсти тайного порочного романа... Как переплетаются нити жизней этих людей, разделенных во времени и пространстве? Тайная мистика судьбы.


Качество: BDRip 1080p
Формат: AVC (библиотека кодирования x.264)
Контейнер (Расширение): MKV
Видео: 1916x800, 11261 Кбит/сек, 24 кадр/сек, 0,306 Бит/[Пиксели*Кадры]
Аудио №1: русский / AC3 / 5.1 / 48 kHz / 448 kbps / 16 bit |Профессиональный двухголосый|
Аудио №2: русский / AC3 / 5.1 / 48 kHz / 448 kbps / 16 bit |Профессиональный многоголосый|
Аудио №3: английский / AC3 / 5.1 / 48 kHz / 640 kbps /
Субтитры: русские
Навигация по главам(Чаптеры): есть
Продолжительность: 01:46:31
Автор рипа: Сообщество:


Format : Matroska
Format version : Version 2
File size : 9.51 GiB
Duration : 1h 46mn
Overall bit rate : 12.8 Mbps
Movie name : The Burning Plain.(2008).BDRip.1080p.[denis100]
Encoded date : UTC 2015-12-15 16:19:10
Writing application : mkvmerge v5.8.0 ('No Sleep / Pillow') built on Sep 2 2012 15:37:04
Writing library : libebml v1.2.3 + libmatroska v1.3.0

Video
ID : 1
Format : AVC
Format/Info : Advanced Video Codec
Format profile : High@L4.1
Format settings, CABAC : No
Format settings, ReFrames : 5 frames
Codec ID : V_MPEG4/ISO/AVC
Duration : 1h 46mn
Bit rate : 11.3 Mbps
Width : 1 916 pixels
Height : 800 pixels
Display aspect ratio : 2.40:1
Frame rate : 24.000 fps
Color space : YUV
Chroma subsampling : 4:2:0
Bit depth : 8 bits
Scan type : Progressive
Bits/(Pixel*Frame) : 0.306
Stream size : 8.18 GiB (86%)
Title : The Burning Plain.(2008).BDRip.1080p.[denis100]
Writing library : x264 core 148 r2638 7599210
Encoding settings : cabac=0 / ref=5 / deblock=1:-3:-3 / analyse=0x3:0x133 / me=umh / subme=11 / psy=1 / psy_rd=1.00:0.00 / mixed_ref=1 / me_range=32 / chroma_me=1 / trellis=2 / 8x8dct=1 / cqm=0 / deadzone=21,11 / fast_pskip=0 / chroma_qp_offset=-2 / threads=6 / lookahead_threads=1 / sliced_threads=0 / nr=0 / decimate=1 / interlaced=0 / bluray_compat=0 / constrained_intra=0 / bframes=10 / b_pyramid=2 / b_adapt=2 / b_bias=0 / direct=3 / weightb=1 / open_gop=0 / weightp=2 / keyint=250 / keyint_min=24 / scenecut=40 / intra_refresh=0 / rc=2pass / mbtree=0 / bitrate=11261 / ratetol=1.0 / qcomp=0.60 / qpmin=0 / qpmax=69 / qpstep=4 / cplxblur=20.0 / qblur=0.5 / ip_ratio=1.40 / pb_ratio=1.30 / aq=1:1.00
Language : English
Default : Yes
Forced : No

Audio #1
ID : 2
Format : AC-3
Format/Info : Audio Coding 3
Mode extension : CM (complete main)
Codec ID : A_AC3
Duration : 1h 46mn
Bit rate mode : Constant
Bit rate : 448 Kbps
Channel(s) : 6 channels
Channel positions : Front: L C R, Side: L R, LFE
Sampling rate : 48.0 KHz
Bit depth : 16 bits
Compression mode : Lossy
Stream size : 341 MiB (4%)
Title : Профессиональный двухголосый
Language : Russian
Default : No
Forced : No

Audio #2
ID : 3
Format : AC-3
Format/Info : Audio Coding 3
Mode extension : CM (complete main)
Codec ID : A_AC3
Duration : 1h 46mn
Bit rate mode : Constant
Bit rate : 448 Kbps
Channel(s) : 6 channels
Channel positions : Front: L C R, Side: L R, LFE
Sampling rate : 48.0 KHz
Bit depth : 16 bits
Compression mode : Lossy
Stream size : 341 MiB (4%)
Title : Профессиональный многоголосый, Парадиз-ВС
Language : Russian
Default : No
Forced : No

Audio #3
ID : 4
Format : AC-3
Format/Info : Audio Coding 3
Mode extension : CM (complete main)
Codec ID : A_AC3
Duration : 1h 46mn
Bit rate mode : Constant
Bit rate : 640 Kbps
Channel(s) : 6 channels
Channel positions : Front: L C R, Side: L R, LFE
Sampling rate : 48.0 KHz
Bit depth : 16 bits
Compression mode : Lossy
Stream size : 488 MiB (5%)
Language : English
Default : No
Forced : No

Text
ID : 5
Format : UTF-8
Codec ID : S_TEXT/UTF8
Codec ID/Info : UTF-8 Plain Text
Language : Russian
Default : No
Forced : No

Menu
00:00:00.000 : en:00:00:00.000
00:07:26.750 : en:00:07:26.750
00:16:10.000 : en:00:16:10.000
00:25:21.583 : en:00:25:21.583
00:33:23.208 : en:00:33:23.208
00:41:41.583 : en:00:41:41.583
00:49:47.917 : en:00:49:47.917
00:59:05.375 : en:00:59:05.375
01:07:29.750 : en:01:07:29.750
01:12:54.542 : en:01:12:54.542
01:16:36.875 : en:01:16:36.875
01:22:31.250 : en:01:22:31.250
01:26:03.708 : en:01:26:03.708
01:31:48.458 : en:01:31:48.458
01:35:46.333 : en:01:35:46.333
x264 [info]: frame I:945 Avg QP:15.75 size:226278
x264 [info]: frame P:30788 Avg QP:17.65 size:105500
x264 [info]: frame B:121666 Avg QP:19.70 size: 45382


_________________
Проголосуй за трекер Открытый торрент трекер - RUS-MEDIA.ORG

Проголосуй Открытый торрент трекер - RUS-MEDIA.ORG


Вернуться к началу
 Профиль Отправить личное сообщение  
 
   Похожие торренты   Автор   Торрент   Размер 
В этой теме нет новых непрочитанных сообщений. Миссисипи в огне / Mississippi Burning [триллер, драма, криминал, 1988] BDRip, Dub

salma3

0 | 0

1.45 ГБ

В этой теме нет новых непрочитанных сообщений. Провокатор / Incendiary [Триллер, драма, мелодрама, 2008] BDRip 1080p, Dvo

salma3

37 | 7

7.61 ГБ

В этой теме нет новых непрочитанных сообщений. Безумие / The Wackness [Драма, мелодрама, комедия, 2008] BDRip 1080p, Mvo+Dvo+Sub

salma3

202 | 32

7.18 ГБ

В этой теме нет новых непрочитанных сообщений. Семь жизней / Seven Pounds [драма, мелодрама, 2008] BDRip 1080p, Dub+Sub

salma3

98 | 17

7.76 ГБ

В этой теме нет новых непрочитанных сообщений. Подстава / Rigged [боевик, драма, криминал, приключения, 2008] BDRip 1080p, Dvo

salma3

113 | 74

6.54 ГБ

В этой теме нет новых непрочитанных сообщений. Сквозь объектив / Picture This [комедия, драма, мелодрама, 2008] BDRip 1080p, Mvo

salma3

22 | 20

6.84 ГБ

В этой теме нет новых непрочитанных сообщений. Список контактов / Deception [триллер, драма, криминал, детектив, 2008] BDRip 1080p, Dub+Sub

salma3

12 | 6

13.95 ГБ


Начать новую тему Ответить на тему  [ 1 сообщение ] 




Для Мосгорсуда, Роскомнадзора и рекламодателей:: mosgorsud-torrent[собачка]yandex.ru
cron