Торрент файл
скачать торрент магнет ссылка Добавлен: 13 дек 2015, 21:18
Размер: 7.88 ГБ
Сидеров: 64
Личеров: 10
Автор

СообщениеДобавлено: 13 дек 2015, 21:18 

Не в сети
Супермодератор
Аватара пользователя
Дата регистрации:
15 фев 2012, 16:44
Возраст: 28
Спасибо: 6642 / 2146
Сообщения: 45738
Год выпуска: 1999
Жанр: Комедийный боевик, криминал
Выпущено: Дания, Scanbox Entertainment, Steen Herdel Filmproduktion, TV2 Danmark
Режиссер: Лассе Спанг Ольсен
В ролях: Ким Бодния, Деян Чукич, Николай Ли Каас, Томас Виллум Йенсен, Петер Ганцлер, Трине Дюрхольм, Лине Крусе, Брайан Паттерсон, Сёрен Сэттер-Лассен, Лестер Висе, Еспер Кристенсен, Лассе Лундерсков, Пребен Харрис, Славко Лабович

О фильме: Случай помогает скромному банковскому клерку Арвиду стать героем и отправить несостоявшегося грабителя банка за решетку, а самому превратиться в звезду национального телевидения. Но очень скоро гордость за храбрый поступок превращается в чувство вины. Арвид узнает, что заключенный нуждался в деньгах для проведения дорогостоящей операции, которая бы позволила им с женой наконец завести долгожданного ребенка. Чтобы достать нужную преступнику сумму, он обращается к своему брату Гаральду. Обладатель криминального прошлого, полный психопат, со своим, очень специфическим понятием кодекса чести, а ныне владелец шикарного ресторана Гаральд планирует ограбление специальной банковской машины для перевозки наличных денег. Но, увы, благотворительная операция терпит фиаско, и Арвид попадает в чрезвычайно непредсказуемое положение.



Качество: BDRip 1080p
Видео: MPEG-4 AVC, 10 Мбит/с, 1920x1080, 23.976 кадр/с
Аудио: Русский (АС3, 6 ch, 448 Кбит/с), датский (DTS, 6 ch, 1509 Кбит/с)
Продолжительность: 01:34:19
Перевод: Профессиональный двухголосый
Субтитры: Русские, английские, испанские, итальянские, немецкие, датские, финские, норвежские

General
Unique ID : 210847532774622239891475996063635292011 (0x9E9FC1F9175E9A6F929CF06DEDE33F6B)
Complete name : I Kina spiser de hunde. 1999. BDRip 1080p - ylnian.mkv
Format : Matroska
Format version : Version 4 / Version 2
File size : 7.88 GiB
Duration : 1h 34mn
Overall bit rate : 12.0 Mbps
Movie name : I Kina spiser de hunde. 1999. BDRip 1080p - ylnian
Encoded date : UTC 2015-12-13 10:53:22
Writing application : mkvmerge v8.3.0 ('Over the Horizon') 64bit
Writing library : libebml v1.3.1 + libmatroska v1.4.2

Video
ID : 1
Format : AVC
Format/Info : Advanced Video Codec
Format profile : High@L4.1
Format settings, CABAC : Yes
Format settings, ReFrames : 4 frames
Codec ID : V_MPEG4/ISO/AVC
Duration : 1h 34mn
Bit rate : 10 000 Kbps
Width : 1 920 pixels
Height : 1 080 pixels
Display aspect ratio : 16:9
Frame rate mode : Constant
Frame rate : 23.976 fps
Color space : YUV
Chroma subsampling : 4:2:0
Bit depth : 8 bits
Scan type : Progressive
Bits/(Pixel*Frame) : 0.201
Stream size : 6.43 GiB (82%)
Title : I Kina spiser de hunde. 1999. BDRip 1080p - ylnian
Writing library : x264 core 146 r2538 121396c
Encoding settings : cabac=1 / ref=4 / deblock=1:-3:-3 / analyse=0x3:0x133 / me=umh / subme=11 / psy=1 / psy_rd=1.05:0.15 / mixed_ref=1 / me_range=48 / chroma_me=1 / trellis=2 / 8x8dct=1 / cqm=0 / deadzone=21,11 / fast_pskip=1 / chroma_qp_offset=-6 / threads=8 / lookahead_threads=2 / sliced_threads=0 / nr=0 / decimate=1 / interlaced=0 / bluray_compat=0 / constrained_intra=0 / bframes=12 / b_pyramid=2 / b_adapt=2 / b_bias=0 / direct=2 / weightb=1 / open_gop=0 / weightp=1 / keyint=240 / keyint_min=1 / scenecut=40 / intra_refresh=0 / rc_lookahead=60 / rc=2pass / mbtree=1 / bitrate=10000 / ratetol=1.0 / qcomp=0.60 / qpmin=0 / qpmax=69 / qpstep=4 / cplxblur=20.0 / qblur=0.5 / vbv_maxrate=40000 / vbv_bufsize=78125 / nal_hrd=none / filler=0 / ip_ratio=1.40 / aq=2:1.00
Language : Danish
Default : Yes
Forced : Yes

Audio #1
ID : 2
Format : AC-3
Format/Info : Audio Coding 3
Mode extension : CM (complete main)
Format settings, Endianness : Big
Codec ID : A_AC3
Duration : 1h 34mn
Bit rate mode : Constant
Bit rate : 448 Kbps
Channel(s) : 6 channels
Channel positions : Front: L C R, Side: L R, LFE
Sampling rate : 48.0 KHz
Compression mode : Lossy
Stream size : 302 MiB (4%)
Title : DVO (AC3 5.1 448 kbps)
Language : Russian
Default : Yes
Forced : Yes

Audio #2
ID : 3
Format : DTS
Format/Info : Digital Theater Systems
Mode : 16
Format settings, Endianness : Big
Codec ID : A_DTS
Duration : 1h 34mn
Bit rate mode : Constant
Bit rate : 1 509 Kbps
Channel(s) : 6 channels
Channel positions : Front: L C R, Side: L R, LFE
Sampling rate : 48.0 KHz
Bit depth : 24 bits
Compression mode : Lossy
Stream size : 1 018 MiB (13%)
Title : DTS 5.1 1509 kbps
Language : Danish
Default : No
Forced : No

Text #1
ID : 4
Format : UTF-8
Codec ID : S_TEXT/UTF8
Codec ID/Info : UTF-8 Plain Text
Language : Russian
Default : No
Forced : No

Text #2
ID : 5
Format : UTF-8
Codec ID : S_TEXT/UTF8
Codec ID/Info : UTF-8 Plain Text
Language : Danish
Default : No
Forced : No

Text #3
ID : 6
Format : UTF-8
Codec ID : S_TEXT/UTF8
Codec ID/Info : UTF-8 Plain Text
Language : English
Default : No
Forced : No

Text #4
ID : 7
Format : UTF-8
Codec ID : S_TEXT/UTF8
Codec ID/Info : UTF-8 Plain Text
Language : Finnish
Default : No
Forced : No

Text #5
ID : 8
Format : UTF-8
Codec ID : S_TEXT/UTF8
Codec ID/Info : UTF-8 Plain Text
Language : German
Default : No
Forced : No

Text #6
ID : 9
Format : UTF-8
Codec ID : S_TEXT/UTF8
Codec ID/Info : UTF-8 Plain Text
Language : Norwegian
Default : No
Forced : No

Text #7
ID : 10
Format : UTF-8
Codec ID : S_TEXT/UTF8
Codec ID/Info : UTF-8 Plain Text
Language : Italian
Default : No
Forced : No

Text #8
ID : 11
Format : UTF-8
Codec ID : S_TEXT/UTF8
Codec ID/Info : UTF-8 Plain Text
Language : Spanish
Default : No
Forced : No

Menu
00:00:00.000 : da:00:00:00.000
00:05:22.113 : da:00:05:22.113
00:11:43.244 : da:00:11:43.244
00:20:47.329 : da:00:20:47.329
00:26:07.149 : da:00:26:07.149
00:35:19.659 : da:00:35:19.659
00:44:50.855 : da:00:44:50.855
00:56:29.636 : da:00:56:29.636
01:03:17.711 : da:01:03:17.711
01:12:15.665 : da:01:12:15.665
01:21:27.216 : da:01:21:27.216
01:31:51.506 : da:01:31:51.506

Релиз от: ylnian


_________________
Проголосуй за трекер Открытый торрент трекер - RUS-MEDIA.ORG

Проголосуй Открытый торрент трекер - RUS-MEDIA.ORG



реклама партнёра


Вернуться к началу
 Профиль Отправить личное сообщение  
 
   Похожие торренты   Автор   Торрент   Размер 
В этой теме нет новых непрочитанных сообщений. Крутые стволы / Mean Guns [боевик, триллер, криминал, 1997] BDRip 1080p, Mvo+Sub

salma3

43 | 8

12.33 ГБ

В этой теме нет новых непрочитанных сообщений. Быстрые перемены / Quick Change [комедия, криминал, 1990] WEBRip 1080p, Dub

salma3

13 | 4

7.27 ГБ

В этой теме нет новых непрочитанных сообщений. Убийство школьного президента / Assassination of a High School President [Комедийный боевик, 2008] BDRip 1080p, Mvo

salma3

65 | 5

7.31 ГБ

В этой теме нет новых непрочитанных сообщений. Коррупционер / The Corruptor [боевик, триллер, драма, криминал, детектив, 1999] BDRip 1080p, Dub+Dvo+Avo+Sub

salma3

23 | 10

7.75 ГБ

В этой теме нет новых непрочитанных сообщений. Совсем мало времени / Am zin [боевик, триллер, драма, криминал, 1999] BDRip 1080p, Avo

salma3

0 | 2

11.87 ГБ

В этой теме нет новых непрочитанных сообщений. Класс 1999 / Class of 1999 [ужасы, фантастика, боевик, 1990] BDRip 1080p, Dvo

salma3

40 | 17

10.77 ГБ

В этой теме нет новых непрочитанных сообщений. Побег из кинотеатра «Свобода» / Ucieczka z kina «Wolnosc» [Драма, комедия, фэнтези, 1990] BDRip 720p, Avo

salma3

21 | 12

2.99 ГБ


Начать новую тему Ответить на тему  [ 1 сообщение ] 




Для Мосгорсуда, Роскомнадзора и рекламодателей:: mosgorsud-torrent[собачка]yandex.ru