Торрент файл
скачать торрент магнет ссылка Добавлен: 11 дек 2015, 21:01
Размер: 6.81 ГБ
Сидеров: 897
Личеров: 22
Автор

СообщениеДобавлено: 11 дек 2015, 21:01 

Не в сети
Зам. Админа
Аватара пользователя
Дата регистрации:
02 дек 2010, 12:39
Спасибо: 12642 / 214
Сообщения: 28010


Информация о фильме
Название: Скорость: Автобус 657
Оригинальное название: Heist
Год выхода: 2015
Жанр: боевик, триллер
Режиссер: Скотт Манн
В ролях: Джеффри Дин Морган, Роберт Де Ниро, Кейт Босворт, Дэйв Батиста, Джина Карано, Марк-Пол Госселаар, Моррис Честнат, Д.Б. Суини, Саммер Элтис, Лидия Халл

О фильме:
Все знают, что обокрасть Фрэнка Поупа, владельца казино и босса мафии — это самоубийство. Но однажды некогда преданный ему крупье решается вынести из кассы казино несколько миллионов долларов. Все было продумано, но план не сработал. Скрываясь с места преступления, грабители захватывают автобус, полный заложников. На бешеной скорости автобус мчится к мексиканской границе. Топливо на пределе. На хвосте — мафия и полиция. И, кажется, выхода нет…

Страна: США
Студия: Emmett/Furla Films, Mass Hysteria Entertainment, Randall Emmett / George Furla Productions, Silver Plane Pictures, Tri Vision Pictures
Продолжительность: 01:32:19
Перевод: Дублированное [iTunes]

Файл
Кодек: MPEG4 Video (H264)
Качество: BDRip 1080p | iTunes
Видео: 1920x800, 8663 Kbps, 23.976fps
Звук:
Аудио #1: AC-3, 6 ch, 384 kbps (Rus) - iTunes
Аудио #2: DTS, 6 ch, 1509 kbps (Eng)
Субтитры: английские
General
Unique ID : 201298890858216139028660577512669401843 (0x9770C19432C849E6A381E00D8D1552F3)
Complete name : D:FilmHeist.2015.BDRip.1080p.mkv
Format : Matroska
Format version : Version 2
File size : 6.81 GiB
Duration : 1h 32mn
Overall bit rate : 10.6 Mbps
Encoded date : UTC 2015-12-11 14:38:15
Writing application : mkvmerge v4.0.0 ('The Stars were mine') сборка от Jun 6 2010 16:18:42
Writing library : libebml v1.0.0 + libmatroska v1.0.0

Video
ID : 1
Format : AVC
Format/Info : Advanced Video Codec
Format profile : High@L4.1
Format settings, CABAC : Yes
Format settings, ReFrames : 5 frames
Codec ID : V_MPEG4/ISO/AVC
Duration : 1h 32mn
Bit rate : 8 663 Kbps
Width : 1 920 pixels
Height : 800 pixels
Display aspect ratio : 2.40:1
Frame rate mode : Constant
Frame rate : 23.976 fps
Color space : YUV
Chroma subsampling : 4:2:0
Bit depth : 8 bits
Scan type : Progressive
Bits/(Pixel*Frame) : 0.235
Stream size : 5.45 GiB (80%)
Writing library : x264 core 148 r2638 7599210
Encoding settings : cabac=1 / ref=5 / deblock=1:0:0 / analyse=0x3:0x133 / me=umh / subme=7 / psy=1 / psy_rd=1.00:0.00 / mixed_ref=1 / me_range=16 / chroma_me=1 / trellis=1 / 8x8dct=1 / cqm=0 / deadzone=21,11 / fast_pskip=0 / chroma_qp_offset=-2 / threads=12 / lookahead_threads=2 / sliced_threads=0 / nr=0 / decimate=1 / interlaced=0 / bluray_compat=0 / constrained_intra=0 / bframes=3 / b_pyramid=2 / b_adapt=2 / b_bias=0 / direct=3 / weightb=1 / open_gop=0 / weightp=2 / keyint=250 / keyint_min=23 / scenecut=40 / intra_refresh=0 / rc_lookahead=50 / rc=2pass / mbtree=1 / bitrate=8663 / ratetol=1.0 / qcomp=0.60 / qpmin=0 / qpmax=69 / qpstep=4 / cplxblur=20.0 / qblur=0.5 / ip_ratio=1.40 / aq=1:1.00
Language : English
Default : No
Forced : No

Audio #1
ID : 2
Format : AC-3
Format/Info : Audio Coding 3
Mode extension : CM (complete main)
Format settings, Endianness : Big
Codec ID : A_AC3
Duration : 1h 32mn
Bit rate mode : Constant
Bit rate : 384 Kbps
Channel(s) : 6 channels
Channel positions : Front: L C R, Side: L R, LFE
Sampling rate : 48.0 KHz
Bit depth : 16 bits
Compression mode : Lossy
Stream size : 254 MiB (4%)
Title : DUB iTunes
Language : Russian
Default : Yes
Forced : Yes

Audio #2
ID : 3
Format : DTS
Format/Info : Digital Theater Systems
Mode : 16
Format settings, Endianness : Big
Codec ID : A_DTS
Duration : 1h 32mn
Bit rate mode : Constant
Bit rate : 1 509 Kbps
Channel(s) : 6 channels
Channel positions : Front: L C R, Side: L R, LFE
Sampling rate : 48.0 KHz
Bit depth : 24 bits
Compression mode : Lossy
Delay relative to video : 11ms
Stream size : 996 MiB (14%)
Language : English
Default : No
Forced : No

Text
ID : 4
Format : UTF-8
Codec ID : S_TEXT/UTF8
Codec ID/Info : UTF-8 Plain Text
Language : English
Default : No
Forced : No

Menu
00:00:00.000 : en:00:00:00.000
00:06:23.842 : en:00:06:23.842
00:11:36.654 : en:00:11:36.654
00:18:00.413 : en:00:18:00.413
00:27:25.769 : en:00:27:25.769
00:34:27.065 : en:00:34:27.065
00:44:30.209 : en:00:44:30.209
00:54:44.031 : en:00:54:44.031
01:03:00.443 : en:01:03:00.443
01:09:18.154 : en:01:09:18.154
01:18:53.145 : en:01:18:53.145
01:26:54.334 : en:01:26:54.334




реклама партнёра


Вернуться к началу
 Профиль  
 
   Похожие торренты   Автор   Торрент   Размер 
В этой теме нет новых непрочитанных сообщений. Скорость: Автобус 657 / Heist (Скотт Манн) [боевик, триллер, 2015] BDRemux 1080p, Dub [iTunes]

Dracon

96 | 27

17.89 ГБ

В этой теме нет новых непрочитанных сообщений. Скорость: Автобус 657 / Heist (Скотт Манн) [боевик, триллер, 2015] BDRip 720p, Dub [iTunes]

Dracon

42 | 9

4.62 ГБ

В этой теме нет новых непрочитанных сообщений. Скорость: Автобус 657 / Heist (Скотт Манн) [боевик, триллер, 2015] Blu-Ray, Dub+Sub [iTunes]

Dracon

153 | 69

18.48 ГБ

В этой теме нет новых непрочитанных сообщений. Скорость: Автобус 657 / Heist (Скотт Манн) [боевик, триллер, 2015] HDRip, Dub [iTunes]

Dracon

379 | 8

1.37 ГБ

В этой теме нет новых непрочитанных сообщений. Скорость: Автобус 657 / Heist (Скотт Манн) [боевик, триллер, 2015] WEB-DLRip, dub [Чистый звук]

Dracon

12095 | 4469

1.38 ГБ

В этой теме нет новых непрочитанных сообщений. Кибер / Blackhat (Майкл Манн) [боевик, триллер, драма, криминал, детектив, 2015] BDRip 1080p, Dub+Sub [лицензия]

Dracon

371 | 201

15.94 ГБ

В этой теме нет новых непрочитанных сообщений. Кибер / Blackhat (Майкл Манн) [боевик, триллер, драма, криминал, детектив, 2015] BDRip 1080p, Dub+Sub [лицензия]

Dracon

58 | 14

32.46 ГБ


Начать новую тему Ответить на тему  [ 1 сообщение ] 




Для Мосгорсуда, Роскомнадзора и рекламодателей:: mosgorsud-torrent[собачка]yandex.ru
cron