Торрент файл
скачать торрент магнет ссылка Добавлен: 07 дек 2015, 21:44
Размер: 4.37 ГБ
Сидеров: 96
Личеров: 8
Автор

СообщениеДобавлено: 07 дек 2015, 21:44 

В сети
Супермодератор
Аватара пользователя
Дата регистрации:
15 фев 2012, 16:44
Возраст: 29
Спасибо: 7377 / 2147
Сообщения: 75969
Год выпуска: 2008
Жанр: триллер, криминал
Выпущено: Канада, Великобритания
Режиссер: Джефф Бисли
В ролях: Кристиан Слэйтер , Эммануэль Вожье , Уэс Бентли , Грег Брайк , Эйдан Дивайн , Ал Сапиенца , Карен ЛеБлан , Кори Женеру , Вивиан ЭнДжи , Патрик Бёрд , Юджин Кларк , Макс Кин
Перевод: Профессиональный многоголосый, Авторский (одноголосый)

Сюжет фильма:
Семь долгих лет Робинсон мечтал о мести - босс мафии Джимми Долан приказал убить его жену, собирающуюся давать показания против Долана в суде. Преступники взрывают машину жены Робинсона и остаются безнаказанными. Семь долгих лет, слыша в своем сознании голос погибшей супруги, Робинсон разрабатывал идеальный план возмездия...



Качество: BDRip 720p
Формат: AVC (библиотека кодирования x.264)
Контейнер (Расширение): MKV
Видео: 1280x542, 4481 Кбит/сек, 23,976 кадр/сек, 0,269 Бит/[Пиксели*Кадры]
Аудио №1: русский / AC3 / 5.1 / 48 kHz / 640 kbps / 16 bit |Профессиональный многоголосый|
Аудио №2: русский / AC3 / 5.1 / 48 kHz / 640 kbps / 16 bit |Авторский, Юрий Немахов|
Аудио №3: русский / AC3 / 5.1 / 48 kHz / 640 kbps / 16 bit |Авторский, Михаил Яроцкий (kyberpunk)|
Аудио №4: английский / AC3 / 5.1 / 48 kHz / 640 kbps /
Субтитры: русские,
Навигация по главам(Чаптеры): есть
Продолжительность: 01:28:52
Автор рипа: Сообщество:


Format : Matroska
Format version : Version 2
File size : 4.37 GiB
Duration : 1h 28mn
Overall bit rate : 7 040 Kbps
Movie name : Dolan's Cadillac.(2008).BDRip.720p.[denis100]
Encoded date : UTC 2015-12-07 14:58:58
Writing application : mkvmerge v5.8.0 ('No Sleep / Pillow') built on Sep 2 2012 15:37:04
Writing library : libebml v1.2.3 + libmatroska v1.3.0

Video
ID : 1
Format : AVC
Format/Info : Advanced Video Codec
Format profile : High@L4.1
Format settings, CABAC : Yes
Format settings, ReFrames : 11 frames
Codec ID : V_MPEG4/ISO/AVC
Duration : 1h 28mn
Bit rate : 4 481 Kbps
Width : 1 280 pixels
Height : 542 pixels
Display aspect ratio : 2.35:1
Frame rate : 23.976 fps
Color space : YUV
Chroma subsampling : 4:2:0
Bit depth : 8 bits
Scan type : Progressive
Bits/(Pixel*Frame) : 0.269
Stream size : 2.69 GiB (62%)
Title : Dolan's Cadillac.(2008).BDRip.720p.[denis100]
Writing library : x264 core 148 r2638 7599210
Encoding settings : cabac=1 / ref=11 / deblock=1:-3:-3 / analyse=0x3:0x133 / me=umh / subme=11 / psy=1 / psy_rd=1.00:0.00 / mixed_ref=1 / me_range=32 / chroma_me=1 / trellis=2 / 8x8dct=1 / cqm=0 / deadzone=21,11 / fast_pskip=0 / chroma_qp_offset=-2 / threads=6 / lookahead_threads=1 / sliced_threads=0 / nr=0 / decimate=1 / interlaced=0 / bluray_compat=0 / constrained_intra=0 / bframes=12 / b_pyramid=2 / b_adapt=2 / b_bias=0 / direct=3 / weightb=1 / open_gop=0 / weightp=2 / keyint=240 / keyint_min=23 / scenecut=40 / intra_refresh=0 / rc=2pass / mbtree=0 / bitrate=4481 / ratetol=1.0 / qcomp=0.60 / qpmin=0 / qpmax=69 / qpstep=4 / cplxblur=20.0 / qblur=0.5 / ip_ratio=1.40 / pb_ratio=1.30 / aq=1:1.00
Language : English
Default : Yes
Forced : No

Audio #1
ID : 2
Format : AC-3
Format/Info : Audio Coding 3
Mode extension : CM (complete main)
Codec ID : A_AC3
Duration : 1h 28mn
Bit rate mode : Constant
Bit rate : 640 Kbps
Channel(s) : 6 channels
Channel positions : Front: L C R, Side: L R, LFE
Sampling rate : 48.0 KHz
Bit depth : 16 bits
Compression mode : Lossy
Stream size : 407 MiB (9%)
Title : MVO
Language : Russian
Default : Yes
Forced : No

Audio #2
ID : 3
Format : AC-3
Format/Info : Audio Coding 3
Mode extension : CM (complete main)
Codec ID : A_AC3
Duration : 1h 28mn
Bit rate mode : Constant
Bit rate : 640 Kbps
Channel(s) : 6 channels
Channel positions : Front: L C R, Side: L R, LFE
Sampling rate : 48.0 KHz
Bit depth : 16 bits
Compression mode : Lossy
Stream size : 407 MiB (9%)
Title : Юрий Немахов
Language : Russian
Default : No
Forced : No

Audio #3
ID : 4
Format : AC-3
Format/Info : Audio Coding 3
Mode extension : CM (complete main)
Codec ID : A_AC3
Duration : 1h 28mn
Bit rate mode : Constant
Bit rate : 640 Kbps
Channel(s) : 6 channels
Channel positions : Front: L C R, Side: L R, LFE
Sampling rate : 48.0 KHz
Bit depth : 16 bits
Compression mode : Lossy
Stream size : 407 MiB (9%)
Title : Михаил Яроцкий (kyberpunk)
Language : Russian
Default : No
Forced : No

Audio #4
ID : 5
Format : AC-3
Format/Info : Audio Coding 3
Mode extension : CM (complete main)
Codec ID : A_AC3
Duration : 1h 28mn
Bit rate mode : Constant
Bit rate : 640 Kbps
Channel(s) : 6 channels
Channel positions : Front: L C R, Side: L R, LFE
Sampling rate : 48.0 KHz
Bit depth : 16 bits
Compression mode : Lossy
Stream size : 407 MiB (9%)
Language : English
Default : No
Forced : No

Text
ID : 6
Format : UTF-8
Codec ID : S_TEXT/UTF8
Codec ID/Info : UTF-8 Plain Text
Language : Russian
Default : No
Forced : No

Menu
00:00:00.000 : en:00:00:00.000
00:05:37.336 : en:00:05:37.336
00:10:55.653 : en:00:10:55.653
00:16:35.995 : en:00:16:35.995
00:21:16.275 : en:00:21:16.275
00:29:34.770 : en:00:29:34.770
00:36:24.181 : en:00:36:24.181
00:48:21.898 : en:00:48:21.898
00:59:53.590 : en:00:59:53.590
01:03:33.809 : en:01:03:33.809
01:06:30.987 : en:01:06:30.987
01:12:11.327 : en:01:12:11.327
01:13:19.395 : en:01:13:19.395
01:19:41.777 : en:01:19:41.777
01:22:57.970 : en:01:22:57.970
01:24:55.090 : en:01:24:55.090
x264 [info]: frame I:939 Avg QP:13.86 size:113417
x264 [info]: frame P:27463 Avg QP:16.50 size: 42098
x264 [info]: frame B:99447 Avg QP:18.53 size: 17316


_________________
Проголосуй за трекер Открытый торрент трекер - RUS-MEDIA.ORG

Проголосуй Открытый торрент трекер - RUS-MEDIA.ORG


Вернуться к началу
 Профиль Отправить личное сообщение  
 
   Похожие торренты   Автор   Торрент   Размер 
В этой теме нет новых непрочитанных сообщений. Человек-кадиллак / Cadillac man [комедия, криминал, 1990] WEB-DLRip, Mvo

salma3

74 | 16

1.45 ГБ

В этой теме нет новых непрочитанных сообщений. Черный кадиллак / Black Cadillac [триллер, 2003] DVDRip, Avo

salma3

0 | 0

1.46 ГБ

В этой теме нет новых непрочитанных сообщений. Розовый Кадиллак / Pink Cadillac [Боевик, комедия, драма, 1989] WEB-DL 720p, Mvo

salma3

86 | 30

3.8 ГБ

В этой теме нет новых непрочитанных сообщений. Информаторы / The Informers [Триллер, драма, криминал, экранизация, 2008] BDRip 720p, Mvo+Sub

salma3

31 | 7

4.35 ГБ

В этой теме нет новых непрочитанных сообщений. Варг Веум 2 - Спящая красавица / Varg Veum - Tornerose [триллер, криминал, 2008] BDRip 720p, Avo

salma3

140 | 54

3.77 ГБ

В этой теме нет новых непрочитанных сообщений. Варг Веум 5 - Женщина в холодильнике / Varg Veum 5 - Kvinnen i kjøleskapet [триллер, криминал, 2008] BDRip 720p, Mvo

salma3

151 | 51

3.79 ГБ

В этой теме нет новых непрочитанных сообщений. Варг Веум 4 - Падшие ангелы / Varg Veum 4 - Falne engler [триллер, драма, криминал, 2008] BDRip 720p, Mvo

salma3

140 | 67

3.95 ГБ


Начать новую тему Ответить на тему  [ 1 сообщение ] 




Для Мосгорсуда, Роскомнадзора и рекламодателей:: mosgorsud-torrent[собачка]yandex.ru
cron