Торрент файл
скачать торрент магнет ссылка Добавлен: 04 дек 2015, 12:22
Размер: 2.88 ГБ
Сидеров: 344
Личеров: 3
Автор

СообщениеДобавлено: 04 дек 2015, 12:22 

Не в сети
Зам. Админа
Аватара пользователя
Дата регистрации:
02 дек 2010, 12:39
Спасибо: 12625 / 214
Сообщения: 28010
Информация о фильме
Название: Шнайдер против Бакса
Оригинальное название: Schneider vs. Bax
Год выхода: 2015
Жанр: триллер, комедия
Режиссер: Алекс ван Вармердам
В ролях: Том Де Виспеларе, Алекс ван Вармердам, Мария Краакман, Гене Бервутс, Аннет Мальэрб, Пьер Бокма, Анри Гарсен, Лоэс Хаверкорт, Ева ван де Вийдевен
О фильме: Шнайдер — наемный убийца-профессионал. Даже в день своего рождения он обязан подчиниться заказчику, некоему Мертенсу, и ликвидировать Рамона Бакса, писателя, живущего в домишке на берегу озера, окруженного болотами. Киллеру приходится спешить — ведь дома его ждет праздничный обед в кругу семьи. Однако в этот день все идет наперекосяк. Непредвиденные обстоятельства то и дело возникают на пути Шнайдера, отодвигая исход операции. Он нервничает и не догадывается, что его жертва на самом деле тоже профессиональный гангстер, у которого он, Шнайдер, на мушке…

Выпущено: Нидерланды / Czar, Graniet Film BV, Mollywood, Verenigde Arbeiders Radio Amateurs (VARA)
Продолжительность: 01:36:23
Озвучивание: Дублированное [iTunes]
Файл
Формат: MKV
Качество: WEB-DL 720p
Видео: MPEG-4 AVC, 3811 kb/s, 1280x536
Аудио: AC3, 384 kb/s (6 ch)
Format : Matroska
Format version : Version 2
File size : 2.88 GiB
Duration : 1h 36mn
Overall bit rate : 4 280 Kbps
Encoded date : UTC 2015-12-04 01:41:59
Writing application : mkvmerge v8.3.0 ('Over the Horizon') 64bit
Writing library : libebml v1.3.1 + libmatroska v1.4.2

Video
ID : 1
Format : AVC
Format/Info : Advanced Video Codec
Format profile : Main@L3.1
Format settings, CABAC : No
Format settings, ReFrames : 2 frames
Codec ID : V_MPEG4/ISO/AVC
Duration : 1h 36mn
Bit rate : 3 811 Kbps
Width : 1 280 pixels
Height : 536 pixels
Display aspect ratio : 2.40:1
Frame rate mode : Constant
Frame rate : 24.000 fps
Color space : YUV
Chroma subsampling : 4:2:0
Bit depth : 8 bits
Scan type : Progressive
Bits/(Pixel*Frame) : 0.231
Stream size : 2.57 GiB (89%)
Language : English
Default : Yes
Forced : No
Color range : Limited
Color primaries : BT.709
Transfer characteristics : BT.709
Matrix coefficients : BT.709

Audio
ID : 2
Format : AC-3
Format/Info : Audio Coding 3
Mode extension : CM (complete main)
Format settings, Endianness : Big
Codec ID : A_AC3
Duration : 1h 36mn
Bit rate mode : Constant
Bit rate : 384 Kbps
Channel(s) : 6 channels
Channel positions : Front: L C R, Side: L R, LFE
Sampling rate : 48.0 KHz
Bit depth : 16 bits
Compression mode : Lossy
Stream size : 265 MiB (9%)
Language : Russian
Default : Yes
Forced : No

Menu
00:00:00.000 : en:Глава 1
00:05:14.000 : en:Глава 2
00:10:44.000 : en:Глава 3
00:15:51.000 : en:Глава 4
00:21:05.000 : en:Глава 5
00:27:06.000 : en:Глава 6
00:32:27.000 : en:Глава 7
00:38:00.000 : en:Глава 8
00:43:51.000 : en:Глава 9
00:49:50.000 : en:Глава 10
00:55:38.000 : en:Глава 11
01:01:07.000 : en:Глава 12
01:07:03.000 : en:Глава 13
01:12:09.000 : en:Глава 14
01:17:21.000 : en:Глава 15
01:22:28.000 : en:Глава 16
01:27:41.000 : en:Глава 17




реклама партнёра


Вернуться к началу
 Профиль  
 
   Похожие торренты   Автор   Торрент   Размер 
В этой теме нет новых непрочитанных сообщений. Шнайдер против Бакса / Schneider vs. Bax (Алекс ван Вармердам) [Триллер, комедия, 2015] WEB-DLRip, dub [iTunes]

Dracon

122 | 8

1.37 ГБ

В этой теме нет новых непрочитанных сообщений. Шнайдер против Бакса / Schneider vs. Bax (Алекс ван Вармердам) [Триллер, комедия, 2015] WEB-DL 1080p, dub [iTunes]

Dracon

66 | 3

3.18 ГБ

В этой теме нет новых непрочитанных сообщений. Шнайдер против Бакса / Schneider vs. Bax [триллер, комедия, 2015] HDRip, Dub

salma3

310 | 109

1.45 ГБ

В этой теме нет новых непрочитанных сообщений. Скауты против зомби / Scouts Guide to the Zombie Apocalypse (Кристофер Лэндон) [Ужасы, комедия, 2015] BDRip 720p, dub [iTunes]

Dracon

1010 | 49

3.52 ГБ

В этой теме нет новых непрочитанных сообщений. Настоящий Роб / Real Rob [S01] (Роб Шнайдер) [Комедия, стендап, 2015] WEBRip 720p [Jaskier]

Dracon

92 | 82

7.69 ГБ

В этой теме нет новых непрочитанных сообщений. Убойный огонек / Mi gran noche (Алекс де ла Иглесиа) [комедия, 2015] WEB-DL 1080p, Mvo [iTunes]

Dracon

819 | 77

3.38 ГБ

В этой теме нет новых непрочитанных сообщений. Убойный огонек / Mi gran noche (Алекс де ла Иглесиа) [комедия, 2015] WEB-DLRip, Mvo [iTunes]

Dracon

4133 | 296

1.46 ГБ


Начать новую тему Ответить на тему  [ 1 сообщение ] 




Для Мосгорсуда, Роскомнадзора и рекламодателей:: mosgorsud-torrent[собачка]yandex.ru