Торрент файл
скачать торрент магнет ссылка Добавлен: 02 дек 2015, 22:08
Размер: 5.32 ГБ
Сидеров: 434
Личеров: 7
Автор

СообщениеДобавлено: 02 дек 2015, 22:08 

Не в сети
Зам. Админа
Аватара пользователя
Дата регистрации:
02 дек 2010, 12:39
Спасибо: 12642 / 214
Сообщения: 28010

Год выхода: 2015
Жанр: фантастика, боевик, приключения
Режиссер: Джош Транк
В ролях: Майлз Теллер, Майкл Б. Джордан, Кейт Мара, Джейми Белл, Тоби Кеббелл, Рег Э. Кэти, Тим Блейк Нельсон, Джошуа Монтес, Дэн Кастелланета, Оуэн Джадж

О фильме:
История о четырех молодых астронавтах, которые отважились на авантюрное путешествие в параллельное измерение для исследования аномальной волны космической энергии. Вернувшись из путешествия, они обнаружили у себя суперспособности, которые навсегда изменили их жизни…

Страна: США, Германия, Великобритания, Канада
Студия: 20th Century Fox Film Corporation, Marvel Entertainment
Продолжительность: 01:39:58
Перевод: Профессиональный (дублированный) Blu-ray EUR

Релиз:

Формат: Matroska
Видео: 1280x536 at 23.976 fps, x264@L4.1, ~4900 kbps avg
Aудио#1: Russian: 48 kHz, DTS, 3/2 (L,C,R,l,r) + LFE ch, ~768 kbps avg |Дубляж, Blu-ray EUR|
Aудио#2: Ukrainian: 48 kHz, AC3, 3/2 (L,C,R,l,r) + LFE ch, ~448 kbps avg |Дубляж, Blu-ray EUR|
Aудио#3: English: 48 kHz, DTS-ES, 3/2 (L,C,R,l,r) + LFE ch, ~1536 kbps avg
Субтитры: Russian (Forced, iTunes), Russian (iTunes), Ukrainian (iTunes), English, English (SDH)

Общее
Уникальный идентификатор : 219403230220367622657273361257525938235 (0xA50F866CCD04A4AB8D4B6755B994083B)
Полное имя : Fantastic.Four.2015.BDRip.720p.BLUEBIRD.mkv
Формат : Matroska
Версия формата : Version 2
Размер файла : 5,32 Гбайт
Продолжительность : 1 ч. 39 м.
Общий поток : 7620 Кбит/сек
Название фильма : BLUEBIRD
Дата кодирования : UTC 2015-12-02 13:23:07
Программа кодирования : mkvmerge v7.9.0 ('Birds') 64bit
Библиотека кодирования : libebml v1.3.1 + libmatroska v1.4.2

Видео
Идентификатор : 1
Формат : AVC
Формат/Информация : Advanced Video Codec
Профиль формата : High@L4.1
Параметр CABAC формата : Да
Параметр ReFrames формата : 12 кадров
Идентификатор кодека : V_MPEG4/ISO/AVC
Продолжительность : 1 ч. 39 м.
Битрейт : 4900 Кбит/сек
Ширина : 1280 пикселей
Высота : 536 пикселей
Соотношение сторон : 2,40:1
Режим частоты кадров : Постоянный
Частота кадров : 23,976 кадра/сек
Цветовое пространство : YUV
Субдискретизация насыщенности : 4:2:0
Битовая глубина : 8 бит
Тип развёртки : Прогрессивная
Бит/(Пиксели*Кадры) : 0.298
Размер потока : 3,31 Гбайт (62%)
Заголовок : BLUEBIRD
Библиотека кодирования : x264 core 148 r2597 e86f3a1
Настройки программы : cabac=1 / ref=12 / deblock=1:-3:-3 / analyse=0x3:0x113 / me=umh / subme=11 / psy=1 / psy_rd=1.00:0.00 / mixed_ref=1 / me_range=32 / chroma_me=1 / trellis=2 / 8x8dct=1 / cqm=0 / deadzone=21,11 / fast_pskip=0 / chroma_qp_offset=-2 / threads=12 / lookahead_threads=3 / sliced_threads=0 / nr=0 / decimate=0 / interlaced=0 / bluray_compat=0 / constrained_intra=0 / bframes=10 / b_pyramid=2 / b_adapt=2 / b_bias=0 / direct=3 / weightb=1 / open_gop=1 / weightp=2 / keyint=240 / keyint_min=23 / scenecut=40 / intra_refresh=0 / rc_lookahead=40 / rc=2pass / mbtree=0 / bitrate=4900 / ratetol=1.0 / qcomp=0.60 / qpmin=0 / qpmax=69 / qpstep=4 / cplxblur=20.0 / qblur=0.5 / vbv_maxrate=50000 / vbv_bufsize=62500 / nal_hrd=none / filler=0 / ip_ratio=1.40 / pb_ratio=1.30 / aq=3:0.90
Default : Да
Forced : Нет

Аудио #1
Идентификатор : 2
Формат : DTS
Формат/Информация : Digital Theater Systems
Режим : 16
Параметр Endianness формата : Big
Идентификатор кодека : A_DTS
Продолжительность : 1 ч. 39 м.
Вид битрейта : Постоянный
Битрейт : 768 Кбит/сек
Каналы : 6 каналов
Расположение каналов : Front: L C R, Side: L R, LFE
Частота : 48,0 КГц
Битовая глубина : 24 бит
Метод сжатия : С потерями
Размер потока : 549 Мбайт (10%)
Заголовок : Blu-ray EUR
Язык : Russian
Default : Да
Forced : Нет

Аудио #2
Идентификатор : 3
Формат : AC-3
Формат/Информация : Audio Coding 3
Расширение режима : CM (complete main)
Параметр Endianness формата : Big
Идентификатор кодека : A_AC3
Продолжительность : 1 ч. 39 м.
Вид битрейта : Постоянный
Битрейт : 448 Кбит/сек
Каналы : 6 каналов
Расположение каналов : Front: L C R, Side: L R, LFE
Частота : 48,0 КГц
Метод сжатия : С потерями
Размер потока : 320 Мбайт (6%)
Заголовок : Blu-ray EUR
Язык : Ukrainian
Default : Нет
Forced : Нет

Аудио #3
Идентификатор : 4
Формат : DTS
Формат/Информация : Digital Theater Systems
Профиль формата : ES
Режим : 16
Параметр Endianness формата : Big
Идентификатор кодека : A_DTS
Продолжительность : 1 ч. 39 м.
Вид битрейта : Постоянный
Битрейт : 1509 Кбит/сек
Каналы : 6 каналов
Расположение каналов : Front: L C R, Side: L R, LFE
Частота : 48,0 КГц
Битовая глубина : 24 бит
Метод сжатия : С потерями
Задержка видео : 11 мс.
Размер потока : 1,05 Гбайт (20%)
Заголовок : DTS-ES 5.1 @ 1536 kbps
Язык : English
Default : Нет
Forced : Нет

Текст #1
Идентификатор : 5
Формат : UTF-8
Идентификатор кодека : S_TEXT/UTF8
Идентификатор кодека/Информация : UTF-8 Plain Text
Заголовок : Forced, iTunes
Язык : Russian
Default : Да
Forced : Нет

Текст #2
Идентификатор : 6
Формат : UTF-8
Идентификатор кодека : S_TEXT/UTF8
Идентификатор кодека/Информация : UTF-8 Plain Text
Заголовок : iTunes
Язык : Russian
Default : Нет
Forced : Нет

Текст #3
Идентификатор : 7
Формат : UTF-8
Идентификатор кодека : S_TEXT/UTF8
Идентификатор кодека/Информация : UTF-8 Plain Text
Заголовок : iTunes
Язык : Ukrainian
Default : Нет
Forced : Нет

Текст #4
Идентификатор : 8
Формат : UTF-8
Идентификатор кодека : S_TEXT/UTF8
Идентификатор кодека/Информация : UTF-8 Plain Text
Язык : English
Default : Нет
Forced : Нет

Текст #5
Идентификатор : 9
Формат : UTF-8
Идентификатор кодека : S_TEXT/UTF8
Идентификатор кодека/Информация : UTF-8 Plain Text
Заголовок : SDH
Язык : English
Default : Нет
Forced : Нет

Меню
00:00:00.000 : en:00:00:00.000
00:02:30.025 : en:00:02:30.025
00:07:22.609 : en:00:07:22.609
00:11:00.159 : en:00:11:00.159
00:14:59.524 : en:00:14:59.524
00:17:57.785 : en:00:17:57.785
00:22:03.322 : en:00:22:03.322
00:24:44.483 : en:00:24:44.483
00:27:49.877 : en:00:27:49.877
00:30:19.776 : en:00:30:19.776
00:34:56.011 : en:00:34:56.011
00:38:16.377 : en:00:38:16.377
00:43:10.087 : en:00:43:10.087
00:48:16.060 : en:00:48:16.060
00:51:35.301 : en:00:51:35.301
00:54:27.055 : en:00:54:27.055
00:57:18.101 : en:00:57:18.101
01:00:27.833 : en:01:00:27.833
01:04:34.913 : en:01:04:34.913
01:08:04.497 : en:01:08:04.497
01:12:08.282 : en:01:12:08.282
01:15:09.964 : en:01:15:09.964
01:19:10.162 : en:01:19:10.162
01:22:16.515 : en:01:22:16.515
01:24:49.543 : en:01:24:49.543
01:27:01.341 : en:01:27:01.341
01:30:49.569 : en:01:30:49.569
01:33:00.450 : en:01:33:00.450




реклама партнёра


Вернуться к началу
 Профиль  
 
   Похожие торренты   Автор   Торрент   Размер 
В этой теме нет новых непрочитанных сообщений. Фантастическая четверка / Fantastic Four (Джошуа Транк) [фантастика, боевик, приключения, 2015] BDRip 1080p, Dub+Sub [Лицензия]

Dracon

766 | 65

10.63 ГБ

В этой теме нет новых непрочитанных сообщений. Фантастическая четверка / Fantastic Four (Джошуа Транк) [фантастика, боевик, приключения, 2015] BDRip 720p, dub [Чистый звук]

Dracon

810 | 62

4.51 ГБ

В этой теме нет новых непрочитанных сообщений. Фантастическая четверка / Fantastic Four (Джошуа Транк) [фантастика, боевик, приключения, 2015] DVD5, Dub+Sub [Лицензия]

Dracon

147 | 16

4.38 ГБ

В этой теме нет новых непрочитанных сообщений. Фантастическая четверка / Fantastic Four (Джошуа Транк) [фантастика, боевик, приключения, 2015] BDRemux 1080p, Dub+Sub [Лицензия]

Dracon

239 | 35

25.19 ГБ

В этой теме нет новых непрочитанных сообщений. Фантастическая четверка / Fantastic Four (Джошуа Транк) [фантастика, боевик, приключения, 2015] BDRip 1080p, dub [Чистый звук]

Dracon

3500 | 264

7.78 ГБ

В этой теме нет новых непрочитанных сообщений. Фантастическая четверка / Fantastic Four (Джошуа Транк) [фантастика, боевик, приключения, 2015] HDRip, dub [Чистый звук]

Dracon

1580 | 10

1.45 ГБ

В этой теме нет новых непрочитанных сообщений. Фантастическая четверка / Fantastic Four [фантастика, боевик, приключения, 2015] BDRip-HEVC 1080p, Dub

salma3

33 | 7

3.93 ГБ


Начать новую тему Ответить на тему  [ 1 сообщение ] 




Для Мосгорсуда, Роскомнадзора и рекламодателей:: mosgorsud-torrent[собачка]yandex.ru
cron