Торрент файл
скачать торрент магнет ссылка Добавлен: 07 ноя 2015, 21:05
Размер: 11.6 ГБ
Сидеров: 71
Личеров: 32
Автор

СообщениеДобавлено: 07 ноя 2015, 21:05 

Не в сети
Супермодератор
Аватара пользователя
Дата регистрации:
15 фев 2012, 16:44
Возраст: 29
Спасибо: 7366 / 2147
Сообщения: 75718
Год выхода: 1995
Жанр: триллер, драма, криминал
Режиссер: Уильям Фридкин
В ролях: Дэвид Карузо, Линда Фиорентино, Чазз Пальминтери, Ричард Кренна, Майкл Бин, Донна Мерфи, Кен Кинг, Холт МакКэллани, Дэвид Хант, Энджи Эверхарт, ...

О фильме: Есть люди, которые полагают, что существуют лишь три вещи, заставляющие крутиться этот прогнивший и порочный мир — деньги, секс и власть. Все остальное, включая жалость, совесть и честь, не имеет для них абсолютно никакого значения. Эти люди готовы пойти на многое во имя своих трех идолов. Но иногда случается, что в своих желаниях они заходят слишком далеко…

Сотрудник прокуратуры Дэйвид Корелли расследует чудовищное по своей жестокости убийство. В своей шикарной вилле был страшно изуродован топором пожилой миллионер.

Следователь Корелли — идеальная кандидатура для разрешения столь сложного преступления. Но есть лишь одна маленькая загвоздка: никто не хочет, чтобы это преступление было раскрыто…



Официальный сайт

Страна: США
Студия: Paramount Pictures
Продолжительность: 01:34:45
Перевод:
Профессиональный (многоголосый, закадровый) ТВ3
Профессиональный (многоголосый, закадровый) 5 канал, Санкт-Петербург
Авторский (одноголосый, закадровый) Живов Юрий Викторович
Авторский (одноголосый, закадровый) Карцев Петр

Файл
Кодек: x264
Качество: BDRip 1080p
Видео: 1920x1080, 15000 kbps, 23,976 fps
Звук:
Аудио #1: AC-3, 6 ch, 448 kbps (Rus) - MVO ТВ3
Аудио #2: AC-3, 2 ch, 192 kbps (Rus) - MVO 5 канал
Аудио #3: AC-3, 2 ch, 192 kbps (Rus) - AVO Живов Юрий Викторович
Аудио #4: AC-3, 2 ch, 192 kbps (Rus) - AVO Карцев Петр
Аудио #5: DTS, 6 ch, 1509 kbps (Eng)
Субтитры: Нет

x264 [info]: frame I:763 Avg QP:18.57 size:216589
x264 [info]: frame P:33301 Avg QP:20.32 size:117011
x264 [info]: frame B:102256 Avg QP:22.11 size: 64443
x264 [info]: consecutive B-frames: 2.0% 3.3% 20.9% 19.9% 14.8% 36.2% 2.0% 0.7% 0.1%

Общее
Уникальный идентификатор : 238916264457800406822629161390583323031 (0xB3BD994A6F6C7EB28451C5295CF41997)
Полное имя : C:TorrentШлюха (Jade) 1995 BDRip 1080p.mkv
Формат : Matroska
Версия формата : Version 2
Размер файла : 11,6 Гбайт
Продолжительность : 1 ч. 34 м.
Общий поток : 17,5 Мбит/сек
Дата кодирования : UTC 2015-11-07 13:14:43
Программа кодирования : mkvmerge v4.0.0 ('The Stars were mine') сборка от Jun 6 2010 16:18:42
Библиотека кодирования : libebml v1.0.0 + libmatroska v1.0.0

Видео
Идентификатор : 1
Формат : AVC
Формат/Информация : Advanced Video Codec
Профиль формата : High@L4.1
Параметр CABAC формата : Да
Параметр ReFrames формата : 4 кадра
Идентификатор кодека : V_MPEG4/ISO/AVC
Продолжительность : 1 ч. 34 м.
Битрейт : 15,0 Мбит/сек
Ширина : 1920 пикселей
Высота : 1080 пикселей
Соотношение сторон : 16:9
Режим частоты кадров : Постоянный
Частота кадров : 23,976 кадра/сек
Цветовое пространство : YUV
Субдискретизация насыщенности : 4:2:0
Битовая глубина : 8 бит
Тип развёртки : Прогрессивная
Бит/(Пиксели*Кадры) : 0.302
Размер потока : 9,69 Гбайт (84%)
Библиотека кодирования : x264 core 146 r2538 121396c
Настройки программы : cabac=1 / ref=4 / deblock=1:-3:-3 / analyse=0x3:0x133 / me=umh / subme=11 / psy=1 / psy_rd=1.00:0.00 / mixed_ref=1 / me_range=32 / chroma_me=1 / trellis=2 / 8x8dct=1 / cqm=0 / deadzone=21,11 / fast_pskip=1 / chroma_qp_offset=-4 / threads=12 / lookahead_threads=2 / sliced_threads=0 / nr=0 / decimate=0 / interlaced=0 / bluray_compat=0 / constrained_intra=0 / bframes=8 / b_pyramid=2 / b_adapt=2 / b_bias=0 / direct=3 / weightb=1 / open_gop=0 / weightp=2 / keyint=240 / keyint_min=23 / scenecut=40 / intra_refresh=0 / rc_lookahead=60 / rc=2pass / mbtree=0 / bitrate=15000 / ratetol=1.0 / qcomp=0.60 / qpmin=0 / qpmax=69 / qpstep=4 / cplxblur=20.0 / qblur=0.5 / vbv_maxrate=50000 / vbv_bufsize=62500 / nal_hrd=none / filler=0 / ip_ratio=1.40 / pb_ratio=1.30 / aq=1:0.80
Язык : English
Default : Нет
Forced : Нет

Аудио #1
Идентификатор : 2
Формат : AC-3
Формат/Информация : Audio Coding 3
Расширение режима : CM (complete main)
Параметр Endianness формата : Big
Идентификатор кодека : A_AC3
Продолжительность : 1 ч. 34 м.
Вид битрейта : Постоянный
Битрейт : 448 Кбит/сек
Каналы : 6 каналов
Расположение каналов : Front: L C R, Side: L R, LFE
Частота : 48,0 КГц
Метод сжатия : С потерями
Размер потока : 304 Мбайт (3%)
Заголовок : MVO ТВ3
Язык : Russian
Default : Нет
Forced : Нет

Аудио #2
Идентификатор : 3
Формат : AC-3
Формат/Информация : Audio Coding 3
Расширение режима : CM (complete main)
Параметр Endianness формата : Big
Идентификатор кодека : A_AC3
Продолжительность : 1 ч. 34 м.
Вид битрейта : Постоянный
Битрейт : 192 Кбит/сек
Каналы : 2 канала
Расположение каналов : Front: L R
Частота : 48,0 КГц
Метод сжатия : С потерями
Размер потока : 130 Мбайт (1%)
Заголовок : MVO 5 канал
Язык : Russian
Default : Нет
Forced : Нет

Аудио #3
Идентификатор : 4
Формат : AC-3
Формат/Информация : Audio Coding 3
Расширение режима : CM (complete main)
Параметр Endianness формата : Big
Идентификатор кодека : A_AC3
Продолжительность : 1 ч. 34 м.
Вид битрейта : Постоянный
Битрейт : 192 Кбит/сек
Каналы : 2 канала
Расположение каналов : Front: L R
Частота : 48,0 КГц
Метод сжатия : С потерями
Размер потока : 130 Мбайт (1%)
Заголовок : AVO Живов Юрий Викторович
Язык : Russian
Default : Нет
Forced : Нет

Аудио #4
Идентификатор : 5
Формат : AC-3
Формат/Информация : Audio Coding 3
Расширение режима : CM (complete main)
Параметр Endianness формата : Big
Идентификатор кодека : A_AC3
Продолжительность : 1 ч. 34 м.
Вид битрейта : Постоянный
Битрейт : 192 Кбит/сек
Каналы : 2 канала
Расположение каналов : Front: L R
Частота : 48,0 КГц
Метод сжатия : С потерями
Размер потока : 130 Мбайт (1%)
Заголовок : AVO Карцев Петр
Язык : Russian
Default : Нет
Forced : Нет

Аудио #5
Идентификатор : 6
Формат : DTS
Формат/Информация : Digital Theater Systems
Режим : 16
Параметр Endianness формата : Big
Идентификатор кодека : A_DTS
Продолжительность : 1 ч. 34 м.
Вид битрейта : Постоянный
Битрейт : 1509 Кбит/сек
Каналы : 6 каналов
Расположение каналов : Front: L C R, Side: L R, LFE
Частота : 48,0 КГц
Битовая глубина : 24 бит
Метод сжатия : С потерями
Размер потока : 1023 Мбайт (9%)
Язык : English
Default : Нет
Forced : Нет



_________________
Проголосуй за трекер Открытый торрент трекер - RUS-MEDIA.ORG

Проголосуй Открытый торрент трекер - RUS-MEDIA.ORG


Вернуться к началу
 Профиль Отправить личное сообщение  
 
   Похожие торренты   Автор   Торрент   Размер 
В этой теме нет новых непрочитанных сообщений. Там внутри / Underneath [Триллер, драма, криминал, 1995] BDRip 1080p, Mvo

salma3

20 | 21

7.1 ГБ

В этой теме нет новых непрочитанных сообщений. Странные дни / Strange Days [фантастика, боевик, триллер, драма, криминал, 1995] BDRip 1080p, Mvo+Avo+Sub

salma3

74 | 21

14.95 ГБ

В этой теме нет новых непрочитанных сообщений. Дьявол в голубом платье / Devil in a Blue Dress [Триллер, драма, криминал, 1995] BDRip 1080p, Mvo

salma3

0 | 0

11.64 ГБ

В этой теме нет новых непрочитанных сообщений. Денежный поезд / Money Train [Боевик, триллер, драма, комедия, криминал, 1995] BDRip 1080p, Dub

salma3

12 | 31

13.52 ГБ

В этой теме нет новых непрочитанных сообщений. Наемные убийцы / Assassins [боевик, триллер, криминал, 1995] BDRip-HEVC 1080p, Dub

salma3

0 | 0

5.03 ГБ

В этой теме нет новых непрочитанных сообщений. Плачущий убийца / Crying Freeman [боевик, триллер, криминал, 1995] BDRip 1080p, Mvo

salma3

39 | 20

7.76 ГБ

В этой теме нет новых непрочитанных сообщений. Казино / Casino [драма, криминал, биография, 1995] BDRip 1080p, Mvo

salma3

0 | 1

17.45 ГБ


Начать новую тему Ответить на тему  [ 1 сообщение ] 




Для Мосгорсуда, Роскомнадзора и рекламодателей:: mosgorsud-torrent[собачка]yandex.ru
cron