Торрент файл
скачать торрент магнет ссылка Добавлен: 22 окт 2015, 20:44
Размер: 8.19 ГБ
Сидеров: 63
Личеров: 7
Автор

СообщениеДобавлено: 22 окт 2015, 20:44 

Не в сети
Супермодератор
Аватара пользователя
Дата регистрации:
15 фев 2012, 16:44
Возраст: 28
Спасибо: 6656 / 2146
Сообщения: 46014
Год выхода: 1996
Жанр: Боевик, триллер, комедия, приключения
Режиссер: Стэнли Тонг
В ролях: Джеки Чан, Энни Ву, Джексон Лиу, Билл Тунг, Юрий Петров, Алан Сит

О фильме: Агенту ЦРУ Джеки поручают следить за шпионкой Наташей, которая купила тур на Украину. Джеки надеется выследить, с кем будет контактировать девушка, но она скрывается. Джеки бросается в погоню. Он гонится за ней по Австралии и России. Главная его задача – остаться в живых и поймать Тсуи, сообщника Наташи, похитившего ядерную боеголовку. Тсуи оказывается ее любовником, бывшим сотрудником ЦРУ. Его завербовал сотрудник КГБ Егоров, лидер русской мафии.

Страна: New Line Cinema / США, Гонконг
Продолжительность: 01:23:50
Перевод: Профессиональный(многоголосый закадровый R5)



Файл
Кодек: MPEG-4 AVC
Качество: BDRip 1080p
Видео: 12 Мбит/с, 1920х792
Звук: Русский (AC3, 6 ch, 448 Кбит/с), Английский (DTS, 6 ch, 1509 Кбит/с)
Субтитры: Отсутствуют

Семпл


Общее
Уникальный идентификатор : 173269494837863563671422545735500230825 (0x825A7DA8B841A633B62797B5B1D4F0A9)
Полное имя : D:Первый.удар.1995.BDRip.1080p.Rus.Eng.mkv
Формат : Matroska
Версия формата : Version 4 / Version 2
Размер файла : 8,19 Гбайт
Продолжительность : 1 ч. 23 м.
Общий поток : 14,0 Мбит/сек
Название фильма : Первый удар / First Strike (1996)
Дата кодирования : UTC 2015-10-20 13:58:12
Программа кодирования : mkvmerge v8.2.0 ('World of Adventure') 64bit
Библиотека кодирования : libebml v1.3.1 + libmatroska v1.4.2
DURATION : 01:23:50.049000000
NUMBER_OF_FRAMES : 471567
NUMBER_OF_BYTES : 948792804
_STATISTICS_WRITING_APP : mkvmerge v8.2.0 ('World of Adventure') 64bit
_STATISTICS_WRITING_DATE_UTC : 2015-10-20 13:58:12
_STATISTICS_TAGS : BPS DURATION NUMBER_OF_FRAMES NUMBER_OF_BYTES

Видео
Идентификатор : 1
Формат : AVC
Формат/Информация : Advanced Video Codec
Профиль формата : High@L4.1
Параметр CABAC формата : Да
Параметр ReFrames формата : 5 кадров
Идентификатор кодека : V_MPEG4/ISO/AVC
Продолжительность : 1 ч. 23 м.
Битрейт : 12,0 Мбит/сек
Ширина : 1920 пикселей
Высота : 792 пикселя
Соотношение сторон : 2,40:1
Режим частоты кадров : Постоянный
Частота кадров : 23,976 кадра/сек
Цветовое пространство : YUV
Субдискретизация насыщенности : 4:2:0
Битовая глубина : 8 бит
Тип развёртки : Прогрессивная
Бит/(Пиксели*Кадры) : 0.330
Размер потока : 6,89 Гбайт (84%)
Библиотека кодирования : x264 core 148 r2597 e86f3a1
Настройки программы : cabac=1 / ref=5 / deblock=1:0:0 / analyse=0x3:0x113 / me=umh / subme=8 / psy=1 / psy_rd=1.00:0.00 / mixed_ref=1 / me_range=16 / chroma_me=1 / trellis=1 / 8x8dct=1 / cqm=0 / deadzone=21,11 / fast_pskip=1 / chroma_qp_offset=-2 / threads=12 / lookahead_threads=2 / sliced_threads=0 / nr=0 / decimate=1 / interlaced=0 / bluray_compat=0 / constrained_intra=0 / bframes=3 / b_pyramid=2 / b_adapt=2 / b_bias=0 / direct=3 / weightb=1 / open_gop=0 / weightp=2 / keyint=240 / keyint_min=24 / scenecut=40 / intra_refresh=0 / rc_lookahead=50 / rc=2pass / mbtree=1 / bitrate=12045 / ratetol=1.0 / qcomp=0.60 / qpmin=0 / qpmax=69 / qpstep=4 / cplxblur=20.0 / qblur=0.5 / vbv_maxrate=62500 / vbv_bufsize=78125 / nal_hrd=none / filler=0 / ip_ratio=1.40 / aq=1:1.00
Default : Да
Forced : Нет
DURATION : 01:23:50.067000000
NUMBER_OF_FRAMES : 120601
NUMBER_OF_BYTES : 7566631765
_STATISTICS_WRITING_APP : mkvmerge v8.2.0 ('World of Adventure') 64bit
_STATISTICS_WRITING_DATE_UTC : 2015-10-20 13:58:12
_STATISTICS_TAGS : BPS DURATION NUMBER_OF_FRAMES NUMBER_OF_BYTES
Коэффициенты матрицы : BT.709

Аудио #1
Идентификатор : 2
Формат : AC-3
Формат/Информация : Audio Coding 3
Расширение режима : CM (complete main)
Параметр Endianness формата : Big
Идентификатор кодека : A_AC3
Продолжительность : 1 ч. 23 м.
Вид битрейта : Постоянный
Битрейт : 448 Кбит/сек
Каналы : 6 каналов
Расположение каналов : Front: L C R, Side: L R, LFE
Частота : 48,0 КГц
Битовая глубина : 16 бит
Метод сжатия : С потерями
Размер потока : 269 Мбайт (3%)
Заголовок : Профессиональный(многоголосый закадровый R5)
Язык : Russian
Default : Да
Forced : Нет

Аудио #2
Идентификатор : 3
Формат : DTS
Формат/Информация : Digital Theater Systems
Режим : 16
Параметр Endianness формата : Big
Идентификатор кодека : A_DTS
Продолжительность : 1 ч. 23 м.
Вид битрейта : Постоянный
Битрейт : 1509 Кбит/сек
Каналы : 6 каналов
Расположение каналов : Front: L C R, Side: L R, LFE
Частота : 48,0 КГц
Битовая глубина : 24 бит
Метод сжатия : С потерями
Размер потока : 905 Мбайт (11%)
Язык : English
Default : Нет
Forced : Нет

Меню
00:00:00.000 : en:00:00:00.000
00:00:15.682 : en:00:00:15.682
00:02:05.792 : en:00:02:05.792
00:03:45.142 : en:00:03:45.142
00:09:48.755 : en:00:09:48.755
00:15:20.253 : en:00:15:20.253
00:23:44.256 : en:00:23:44.256
00:26:17.785 : en:00:26:17.785
00:33:18.538 : en:00:33:18.538
00:36:05.330 : en:00:36:05.330
00:40:59.624 : en:00:40:59.624
00:45:09.165 : en:00:45:09.165
00:48:46.507 : en:00:48:46.507
00:54:01.572 : en:00:54:01.572
00:56:32.764 : en:00:56:32.764
01:05:27.382 : en:01:05:27.382
01:07:32.257 : en:01:07:32.257
01:11:21.360 : en:01:11:21.360
01:14:58.285 : en:01:14:58.285
01:17:08.374 : en:01:17:08.374
01:19:35.938 : en:01:19:35.938


_________________
Проголосуй за трекер Открытый торрент трекер - RUS-MEDIA.ORG

Проголосуй Открытый торрент трекер - RUS-MEDIA.ORG



реклама партнёра


Вернуться к началу
 Профиль Отправить личное сообщение  
 
   Похожие торренты   Автор   Торрент   Размер 
В этой теме нет новых непрочитанных сообщений. Первый удар / First Strike [боевик, триллер, драма, 1996] BDRip 1080p, Mvo

salma3

11 | 4

8.81 ГБ

В этой теме нет новых непрочитанных сообщений. Первый удар / First Strike [боевик, триллер, драма, 1996] BDRip 720p, Mvo+Dvo+Avo+Sub

salma3

51 | 15

3.53 ГБ

В этой теме нет новых непрочитанных сообщений. Первый удар / First Strike [Боевик, триллер, драма, 1996] HDRip, Mvo [HTB]

salma3

14 | 3

1.37 ГБ

В этой теме нет новых непрочитанных сообщений. Джей и Молчаливый Боб наносят ответный удар / Jay and Silent Bob Strike Back (комедия. 2001) BDRip 1080p Dub+Mvo+Avo+Sub

Aleksandr.ru

67 | 2

9.92 ГБ

В этой теме нет новых непрочитанных сообщений. Ответный удар / Strike Back [S05] (Майкл Дж. Бассет, Джулиан Холмс) [2015, Боевик, триллер, драма, HDTVRip 1080p | Novamedia]

Nickolas3435

29 | 18

16.75 ГБ

В этой теме нет новых непрочитанных сообщений. Ответный удар / Strike Back [06x03 из 10] [Боевик, триллер, драма, 2017] HDTVRip, Mvo [IdeaFilm]

salma3

0 | 0

1.62 ГБ

В этой теме нет новых непрочитанных сообщений. Первый рыцарь / First Knight [Боевик, триллер, мелодрама, приключения, 1995] BDRip 1080p, Dub+4Mvo+Dvo+Avo+Sub

salma3

17 | 41

16.02 ГБ


Начать новую тему Ответить на тему  [ 1 сообщение ] 




Для Мосгорсуда, Роскомнадзора и рекламодателей:: mosgorsud-torrent[собачка]yandex.ru