Торрент файл
скачать торрент магнет ссылка Добавлен: 20 окт 2015, 20:51
Размер: 3.05 ГБ
Сидеров: 937
Личеров: 79
Автор

СообщениеДобавлено: 20 окт 2015, 20:51 

Не в сети
Зам. Админа
Аватара пользователя
Дата регистрации:
02 дек 2010, 12:39
Спасибо: 12620 / 214
Сообщения: 28049
Год выпуска: 2013
Жанр: Ужасы, приключения
Режиссер: Элай Рот
В ролях: Лоренца Иззо, Ариэль Леви, Дэрил Сабара, Кирби Блисс Блэнтон, Магда Апанович, Скай Феррейра, Николас Мартинез, Аарон Барнс, Игнасия Алламанд, Рамон Льяо
О фильме:
Чтобы спасти племена Амазонки от вымирания из-за наступления цивилизации, группа из нескольких нью-йоркских студентов отправляется в джунгли Перу. Правда, возвращаясь домой, ребята попадают прямо, можно сказать, в лапы к тем, кого собирались защищать. И все из-за того, что самолет, в котором они направлялись в Америку, потерпел крушение из-за того, что сломался двигатель. Не все выжили, но тем, кому судьба дала еще один шанс, не позавидуешь. Им придется узнать страшную тайну индейского племени. Оказывается, они не только лишают жизни людей, но и съедают их.

Выпущено: Чили, США, Worldview Entertainment, Dragonfly Entertainment, Sobras International Pictures
Продолжительность: 01:40:38
Перевод фильма: Enigma
Озвучка: Любительская одноголосая (xixidok)

Качество: WEB-DL 720p
Видео: AVC/H.264, 1280x532 (2.40:1), 23.976 fps, 4054 Kbps (0.248 bit/pixel)
Аудио: АС3, 2 ch, 192 Кбит/с (Любительский одноголосый)


General
Unique ID : 203519314104203571241515067902620111040 (0x991C64E5AACF27A7B29B9874D9E490C0)
Complete name : F:The.Green.Inferno.2013.WEB-DL.720p (1).mkv
Format : Matroska
Format version : Version 4 / Version 2
File size : 3.05 GiB
Duration : 1h 40mn
Overall bit rate : 4 332 Kbps
Movie name : The Green Inferno 2013
Encoded date : UTC 2015-10-20 16:17:36
Writing application : mkvmerge v8.5.0 ('Vanishing Act') 64bit
Writing library : libebml v1.3.1 + libmatroska v1.4.2
DURATION : 01:40:37.952000000
NUMBER_OF_FRAMES : 188686
NUMBER_OF_BYTES : 144910848
_STATISTICS_WRITING_APP : mkvmerge v8.5.0 ('Vanishing Act') 64bit
_STATISTICS_WRITING_DATE_UT : 2015-10-20 16:17:36
_STATISTICS_TAGS : BPS DURATION NUMBER_OF_FRAMES NUMBER_OF_BYTES

Video
ID : 1
Format : AVC
Format/Info : Advanced Video Codec
Format profile : Main@L3.1
Format settings, CABAC : No
Format settings, ReFrames : 2 frames
Codec ID : V_MPEG4/ISO/AVC
Duration : 1h 40mn
Bit rate : 4 054 Kbps
Width : 1 280 pixels
Height : 532 pixels
Display aspect ratio : 2.40:1
Frame rate mode : Constant
Frame rate : 23.976 fps
Color space : YUV
Chroma subsampling : 4:2:0
Bit depth : 8 bits
Scan type : Progressive
Bits/(Pixel*Frame) : 0.248
Stream size : 2.85 GiB (94%)
Title : Зеленый ад / The Green Inferno (2013) WEB-DL [H.264/720p-LQ]
Language : English
Default : Yes
Forced : No
Color range : Limited
Color primaries : BT.709
Transfer characteristics : BT.709
Matrix coefficients : BT.709

Audio
ID : 2
Format : AC-3
Format/Info : Audio Coding 3
Mode extension : CM (complete main)
Format settings, Endianness : Big
Codec ID : A_AC3
Duration : 1h 40mn
Bit rate mode : Constant
Bit rate : 192 Kbps
Channel(s) : 2 channels
Channel positions : Front: L R
Sampling rate : 48.0 KHz
Compression mode : Lossy
Stream size : 138 MiB (4%)
Title : Любительский одноголосый (xixidok)
Default : Yes
Forced : No

Menu
00:00:00.000 : en:Chapitre 01
00:10:00.000 : en:Chapitre 02
00:20:00.000 : en:Chapitre 03
00:30:00.000 : en:Chapitre 04
00:40:00.000 : en:Chapitre 05
00:50:00.000 : en:Chapitre 06
01:00:00.000 : en:Chapitre 07
01:10:00.000 : en:Chapitre 08
01:20:00.000 : en:Chapitre 09
01:30:00.000 : en:Chapitre 10




реклама партнёра


Вернуться к началу
 Профиль  
 
   Похожие торренты   Автор   Торрент   Размер 
В этой теме нет новых непрочитанных сообщений. Зеленый ад / The Green Inferno (Элай Рот) [Ужасы, приключения, 2013] WEB-DLRip, avo

Dracon

4580 | 163

1.37 ГБ

В этой теме нет новых непрочитанных сообщений. Зеленый ад / The Green Inferno (Элай Рот) [Ужасы, приключения, 2013] WEB-DLRip, dvo

Dracon

433 | 29

1.37 ГБ

В этой теме нет новых непрочитанных сообщений. Зеленый ад / The Green Inferno [ужасы, приключения, 2013] BDRip 1080p, Dvo

salma3

43 | 14

7.6 ГБ

В этой теме нет новых непрочитанных сообщений. Зеленый огонь / Green Fire [Драма, приключения, 1954] DVDRip, Mvo

salma3

18 | 3

1.37 ГБ

В этой теме нет новых непрочитанных сообщений. К югу от ада / South of Hell [S01] (Элай Рот) [2015, ужасы, фэнтези, триллер, драма, WEB-DL 720p | NewStudio]

Dracon

56 | 53

11.32 ГБ

В этой теме нет новых непрочитанных сообщений. Кто там? / Knock Knock (Элай Рот) [Триллер, ужасы, 2015] BDRip 720p, dub [Чистый звук]

Dracon

849 | 26

4.5 ГБ

В этой теме нет новых непрочитанных сообщений. Кто там? / Knock Knock (Элай Рот) [Триллер, ужасы, 2015] WEB-DL 720p, avo

Dracon

3357 | 84

3.24 ГБ


Начать новую тему Ответить на тему  [ 1 сообщение ] 




Для Мосгорсуда, Роскомнадзора и рекламодателей:: mosgorsud-torrent[собачка]yandex.ru