Торрент файл
скачать торрент магнет ссылка Добавлен: 12 окт 2015, 18:46
Размер: 5.51 ГБ
Сидеров: 37
Личеров: 1
Автор

СообщениеДобавлено: 12 окт 2015, 18:46 

Не в сети
Супермодератор
Аватара пользователя
Дата регистрации:
15 фев 2012, 16:44
Возраст: 28
Спасибо: 7226 / 2147
Сообщения: 68215



Страна: США
Жанр: фантастика, боевик, триллер, криминал
Год выпуска: 1984
Режиссер: Майкл Крайтон / Michael Crichton
В ролях: Том Селлек (Sgt. Jack R. Ramsay), Синтия Роудс (Officer Karen Thompson), Джин Симмонс (Dr. Charles Luther), Кёрсти Элли (Jackie Rogers), Стэн Шоу (Sgt. Marvin James), Дж. У. Бейли (Chief of Police), Джои Крамер (Bobby Ramsay), Крис Малки (David Johnson), Энн-Мари Мартин (Hooker at Bar), Майкл Пол Чан (Vectrocon Security Guard), Elizabeth Norment (Miss Shields, Reporter), Кэрол Тисдейл (Sally)
Описание:
Недалекое будущее. Полицейский Джек Рамси - сотрудник особого отдела по обезвреживанию поломанных или спятивших роботов. Он расследует случай странного сумасшествия робота, которое привело к гибели людей. Джек выясняет, что преступление спланировано человеком, изменившим программу робота. Но как только полицейский находит след преступников, злоумышленник похищает его десятилетнего сына и требует вернуть все попавшие в руки полиции материалы и документы о сверхновых микросхемах.



Продолжительность: 01:40:04
Перевод: Профессиональный (двухголосый, закадровый)[Екатеринбург Арт] + Авторский [Гаврилов Андрей]
Субтитры: Нет
Качество: BDRip 1080p
Контейнер: MKV
Видео: AVC; 1920x816 (2.35:1); ~7500 Kbps; 23,976 fps
Аудио№1: Russian: 48 kHz, АС3, 2 ch, 192 kbps [двухголосый, Екатеринбург Арт]
Аудио№2: Russian: 48 kHz, АС3, 2 ch, 192 kbps [одноголосый, Гаврилов]
Навигация по главам: есть



General
Unique ID : 221299763555651191628976015551272866259 (0xA67CC8BCDBFBBE107ACC3B4EE29051D3)
Complete name : D:КИНООхота на роботов.(1984).BLU-RAY.1080p.[-=DoMiNo=-]..mkv
Format : Matroska
Format version : Version 4 / Version 2
File size : 5.51 GiB
Duration : 1h 40mn
Overall bit rate : 7 889 Kbps
Movie name : Охота на роботов
Writing application : XviD4PSP 7.0.177
Writing library : Lavf56.25.101
ORIGINAL_TITLE : Runaway
DATE : 1984
GENRE : фантастика, боевик, триллер, криминал
ENCODING_INFO : BluRay > MKV 1080p / H264 > X264 VBR-2P 7500kbps Custom / AC3 > COPY / AC3 > COPY
DEION : Недалекое будущее. Полицейский Джек Рамси — сотрудник особого отдела по обезвреживанию поломанных или спятивших роботов. Он расследует случай странного сумасшествия робота, которое привело к гибели людей. Джек выясняет, что преступление спланировано человеком, изменившим программу робота. Но как только полицейский находит след преступников, злоумышленник похищает его десятилетнего сына и требует вернуть все попавшие в руки полиции материалы и документы о сверхновых микросхемах.
SYNOPSIS : Недалекое будущее. Полицейский Джек Рамси — сотрудник особого отдела по обезвреживанию поломанных или спятивших роботов. Он расследует случай странного сумасшествия робота, которое привело к гибели людей. Джек выясняет, что преступление спланировано человеком, изменившим программу робота. Но как только полицейский находит след преступников, злоумышленник похищает его десятилетнего сына и требует вернуть все попавшие в руки полиции материалы и документы о сверхновых микросхемах.
ITUNEXTC : mpaa|PG-13|300|
ACTORS : Том Селлек, Синтия Роудс, Джин Симмонс, Кёрсти Элли, Стэн Шоу, Дж. У. Бейли, Джои Крамер, Крис Малки, Энн-Мари Мартин, Майкл Пол Чан, показать всех
DIRECTOR : Майкл Крайтон
PRODUCER : Лиза Фэвершэм, Майкл И. Рахмил, Курт Виладсен
WRITER : Майкл Крайтон
COUNTRY : США
RATING : 6.103
IMDB_RATING : 5.90
Language : und
FILENAME : cover.png
Attachements : cover.png

Video
ID : 1
Format : AVC
Format/Info : Advanced Video Codec
Format profile : High@L4.1
Format settings, CABAC : Yes
Format settings, ReFrames : 5 frames
Codec ID : V_MPEG4/ISO/AVC
Duration : 1h 40mn
Bit rate : 7 500 Kbps
Width : 1 920 pixels
Height : 816 pixels
Display aspect ratio : 2.35:1
Frame rate mode : Constant
Frame rate : 23.976 fps
Color space : YUV
Chroma subsampling : 4:2:0
Bit depth : 8 bits
Scan type : Progressive
Bits/(Pixel*Frame) : 0.200
Stream size : 5.14 GiB (93%)
Writing library : x264 core 148 r2597M e86f3a1
Encoding settings : cabac=1 / ref=5 / deblock=1:-3:-3 / analyse=0x3:0x113 / me=umh / subme=10 / psy=1 / psy_rd=1.00:0.20 / mixed_ref=1 / me_range=32 / chroma_me=1 / trellis=2 / 8x8dct=1 / cqm=0 / deadzone=21,11 / fast_pskip=0 / chroma_qp_offset=-3 / threads=5 / lookahead_threads=1 / sliced_threads=0 / nr=0 / decimate=1 / interlaced=0 / bluray_compat=0 / constrained_intra=0 / bframes=6 / b_pyramid=2 / b_adapt=2 / b_bias=0 / direct=3 / weightb=1 / open_gop=0 / weightp=2 / keyint=230 / keyint_min=23 / scenecut=40 / intra_refresh=0 / rc=2pass / mbtree=0 / bitrate=7500 / ratetol=1.0 / qcomp=0.60 / qpmin=0 / qpmax=69 / qpstep=4 / cplxblur=20.0 / qblur=0.5 / ip_ratio=1.40 / pb_ratio=1.30 / aq=1:1.00
Language : English
Default : Yes
Forced : No
Color range : Limited
Color primaries : BT.709
Transfer characteristics : BT.709
Matrix coefficients : BT.709

Audio #1
ID : 2
Format : AC-3
Format/Info : Audio Coding 3
Mode extension : CM (complete main)
Format settings, Endianness : Big
Codec ID : A_AC3
Duration : 1h 40mn
Bit rate mode : Constant
Bit rate : 192 Kbps
Channel(s) : 2 channels
Channel positions : Front: L R
Sampling rate : 48.0 KHz
Bit depth : 32 bits
Compression mode : Lossy
Stream size : 137 MiB (2%)
Title : двухголосый, Екатеринбург Арт
Language : Russian
Default : Yes
Forced : No

Audio #2
ID : 3
Format : AC-3
Format/Info : Audio Coding 3
Format profile : Dolby Digital
Mode extension : CM (complete main)
Format settings, Endianness : Big
Codec ID : A_AC3
Duration : 1h 40mn
Bit rate mode : Constant
Bit rate : 192 Kbps
Channel(s) : 2 channels
Channel positions : Front: L R
Sampling rate : 48.0 KHz
Bit depth : 32 bits
Compression mode : Lossy
Stream size : 137 MiB (2%)
Title : одноголосый, Гаврилов
Language : Russian
Default : No
Forced : No

Menu
00:00:00.000 : :Глава 1
00:02:04.332 : :Глава 2
00:08:46.943 : :Глава 3
00:25:12.177 : :Глава 4
00:32:28.279 : :Глава 5
00:38:28.639 : :Глава 6
00:43:18.137 : :Глава 7
00:54:22.259 : :Глава 8
01:04:36.789 : :Глава 9
01:11:58.229 : :Глава 10
01:22:03.917 : :Глава 11
01:40:04.289 : :Глава 12


_________________
Проголосуй за трекер Открытый торрент трекер - RUS-MEDIA.ORG

Проголосуй Открытый торрент трекер - RUS-MEDIA.ORG


Вернуться к началу
 Профиль Отправить личное сообщение  
 
   Похожие торренты   Автор   Торрент   Размер 
В этой теме нет новых непрочитанных сообщений. Охота на роботов / Runaway [фантастика, боевик, триллер, 1984] BDRip 1080p, Dvo

salma3

0 | 0

8.78 ГБ

В этой теме нет новых непрочитанных сообщений. Охота на роботов / Runaway [фантастика, боевик, триллер, криминал. 1984] BDRip 720p, Dvo+Avo+Sub

salma3

37 | 0

4.71 ГБ

В этой теме нет новых непрочитанных сообщений. Охота на роботов / Runaway [фантастика, боевик, триллер, 1984] BDRip-AVC, Dvo

salma3

0 | 0

2 ГБ

В этой теме нет новых непрочитанных сообщений. Охота на роботов / Runaway [фантастика, боевик, триллер, 1984] BDRemux 1080p, Dvo

salma3

0 | 1

20.93 ГБ

В этой теме нет новых непрочитанных сообщений. Охота на роботов / Runaway [фантастика, боевик, триллер, 1984] BDRip 720p, Dvo

salma3

0 | 0

3.37 ГБ

В этой теме нет новых непрочитанных сообщений. Охота на роботов / Runaway [Фантастика, триллер, 1984] DVDRip, Dvo

salma3

1 | 2

1.46 ГБ

В этой теме нет новых непрочитанных сообщений. Класс 1984 / Class of 1984 [боевик, триллер, драма, криминал, 1982] BDRip 1080p, Avo

salma3

101 | 32

7.76 ГБ


Начать новую тему Ответить на тему  [ 1 сообщение ] 




Для Мосгорсуда, Роскомнадзора и рекламодателей:: mosgorsud-torrent[собачка]yandex.ru
cron