Торрент файл
скачать торрент магнет ссылка Добавлен: 10 окт 2015, 20:14
Размер: 11.93 ГБ
Сидеров: 43
Личеров: 5
Автор

СообщениеДобавлено: 10 окт 2015, 20:14 

В сети
Супермодератор
Аватара пользователя
Дата регистрации:
15 фев 2012, 16:44
Возраст: 28
Спасибо: 7290 / 2147
Сообщения: 70478
Год выпуска: 2010
Страна: США
Жанр: фэнтези, комедия, приключения
Продолжительность: 01:43:29
Перевод: профессиональный многоголосый

Режиссёр: Элизабет Аллен

В ролях: Джои Кинг, Селена Гомес, Джон Корбетт, Бриджет Мойнэхэн, Джиннифер Гудвин, Джош Дюамель, Джейсон Спивак, Сьерра МакКормик, Сандра О, Кэтрин Зэнна

Описание: В центре событий сёстры Куимби — Рамона и Беатрис, более известная как Бизу. Так её прозвала Рамона. Рамона — забавная, шальная и непредсказуемая личность, успехами в учёбе не блещет, а вот Бизус, в отличие от младшей сестры школьница-отличница, совершенная, красивая и просто идеальная во всём девушка. Из-за своего бойкого характера Рамона часто сталкивается с непониманием окружающих, в особенности Бизус. Сёстры ссорятся из-за своих разных характеров и абсолютно противоположных взглядов на жизнь, но, на самом деле, каждая из них друг другу завидует. Рамона хочет стать совершенной, как и Бизус, а Бизус в свою очередь, хочет стать, как Рамона: стать тем, кем является, а не носить маску перед окружающими...



Качество: BDRip 1080p
Формат: MKV
Видео: MPEG-4 AVC, 14.3 Mбит/с, 1920х800, 23,976 кадра/с
Аудио 1: русский, AC3, 384 kbps, 6 ch, 48 kHz [профессиональный многоголосый]
Аудио 2: английский, DTS, 1509 kbps, 6 ch, 48 kHz [оригинал]
Субтитры 1: русские (форсированные)
Субтитры 2: русские
Субтитры 3: английские (для слабослышащих)

Общее
Уникальный идентификатор : 186421180917435512962057490935060900851 (0x8C3F69D87E8F19EF95FB7E464AE42BF3)
Полное имя : D:VideoРамона и Бизус.2010.BDRip.1080p.mkv
Формат : Matroska
Версия формата : Version 4 / Version 2
Размер файла : 11,9 Гбайт
Продолжительность : 1 ч. 43 м.
Общий поток : 16,5 Мбит/сек
Название фильма : BDRip -- STarankov
Дата кодирования : UTC 2015-10-10 02:43:43
Программа кодирования : mkvmerge v8.2.0 ('World of Adventure') 64bit
Библиотека кодирования : libebml v1.3.1 + libmatroska v1.4.2
DURATION : 01:43:29.248000000
NUMBER_OF_FRAMES : 582117
NUMBER_OF_BYTES : 1171220940
_STATISTICS_WRITING_APP : mkvmerge v8.2.0 ('World of Adventure') 64bit
_STATISTICS_WRITING_DATE_UTC : 2015-10-10 02:43:43
_STATISTICS_TAGS : BPS DURATION NUMBER_OF_FRAMES NUMBER_OF_BYTES

Видео
Идентификатор : 1
Формат : AVC
Формат/Информация : Advanced Video Codec
Профиль формата : High@L4.1
Параметр CABAC формата : Да
Параметр ReFrames формата : 4 кадра
Идентификатор кодека : V_MPEG4/ISO/AVC
Продолжительность : 1 ч. 43 м.
Битрейт : 14,3 Мбит/сек
Ширина : 1920 пикселей
Высота : 800 пикселей
Соотношение сторон : 2,40:1
Режим частоты кадров : Постоянный
Частота кадров : 23,976 кадра/сек
Цветовое пространство : YUV
Субдискретизация насыщенности : 4:2:0
Битовая глубина : 8 бит
Тип развёртки : Прогрессивная
Бит/(Пиксели*Кадры) : 0.388
Размер потока : 10,3 Гбайт (87%)
Библиотека кодирования : x264 core 146 r2538 121396c
Настройки программы : cabac=1 / ref=4 / deblock=1:-1:-1 / analyse=0x3:0x113 / me=umh / subme=10 / psy=1 / psy_rd=1.00:0.15 / mixed_ref=1 / me_range=32 / chroma_me=1 / trellis=2 / 8x8dct=1 / cqm=0 / deadzone=21,11 / fast_pskip=1 / chroma_qp_offset=-3 / threads=6 / lookahead_threads=1 / sliced_threads=0 / nr=0 / decimate=1 / interlaced=0 / bluray_compat=0 / constrained_intra=0 / bframes=12 / b_pyramid=2 / b_adapt=2 / b_bias=0 / direct=1 / weightb=1 / open_gop=0 / weightp=2 / keyint=230 / keyint_min=23 / scenecut=40 / intra_refresh=0 / rc_lookahead=40 / rc=crf / mbtree=0 / crf=18.0 / qcomp=0.60 / qpmin=0 / qpmax=69 / qpstep=4 / vbv_maxrate=40000 / vbv_bufsize=50000 / crf_max=0.0 / nal_hrd=none / filler=0 / ip_ratio=1.40 / pb_ratio=1.30 / aq=1:1.00
Язык : English
Default : Да
Forced : Нет
DURATION : 01:43:29.245000000
NUMBER_OF_FRAMES : 148873
NUMBER_OF_BYTES : 11341310033
_STATISTICS_WRITING_APP : mkvmerge v8.2.0 ('World of Adventure') 64bit
_STATISTICS_WRITING_DATE_UTC : 2015-10-10 02:43:43
_STATISTICS_TAGS : BPS DURATION NUMBER_OF_FRAMES NUMBER_OF_BYTES

Аудио #1
Идентификатор : 2
Формат : AC-3
Формат/Информация : Audio Coding 3
Расширение режима : CM (complete main)
Параметр Endianness формата : Big
Идентификатор кодека : A_AC3
Продолжительность : 1 ч. 43 м.
Вид битрейта : Постоянный
Битрейт : 384 Кбит/сек
Каналы : 6 каналов
Расположение каналов : Front: L C R, Side: L R, LFE
Частота : 48,0 КГц
Метод сжатия : С потерями
Размер потока : 284 Мбайт (2%)
Заголовок : MVO
Язык : Russian
Default : Да
Forced : Нет

Аудио #2
Идентификатор : 3
Формат : DTS
Формат/Информация : Digital Theater Systems
Режим : 16
Параметр Endianness формата : Big
Идентификатор кодека : A_DTS
Продолжительность : 1 ч. 43 м.
Вид битрейта : Постоянный
Битрейт : 1509 Кбит/сек
Каналы : 6 каналов
Расположение каналов : Front: L C R, Side: L R, LFE
Частота : 48,0 КГц
Битовая глубина : 24 бит
Метод сжатия : С потерями
Размер потока : 1,09 Гбайт (9%)
Заголовок : Original
Язык : English
Default : Нет
Forced : Нет

Текст #1
Идентификатор : 4
Формат : UTF-8
Идентификатор кодека : S_TEXT/UTF8
Идентификатор кодека/Информация : UTF-8 Plain Text
Заголовок : рууский (форсированные)
Язык : Russian
Default : Да
Forced : Да

Текст #2
Идентификатор : 5
Формат : UTF-8
Идентификатор кодека : S_TEXT/UTF8
Идентификатор кодека/Информация : UTF-8 Plain Text
Заголовок : русский
Язык : Russian
Default : Нет
Forced : Нет

Текст #3
Идентификатор : 6
Формат : UTF-8
Идентификатор кодека : S_TEXT/UTF8
Идентификатор кодека/Информация : UTF-8 Plain Text
Заголовок : английский (для слабослышащих)
Default : Нет
Forced : Нет




_________________
Проголосуй за трекер Открытый торрент трекер - RUS-MEDIA.ORG

Проголосуй Открытый торрент трекер - RUS-MEDIA.ORG


Вернуться к началу
 Профиль Отправить личное сообщение  
 
   Похожие торренты   Автор   Торрент   Размер 
В этой теме нет новых непрочитанных сообщений. Рамона и Бизус / Ramona and Beezus [фэнтези, комедия, приключения, 2010] BDRip 720p, Mvo=Sub

salma3

62 | 9

4 ГБ

В этой теме нет новых непрочитанных сообщений. Рамона и Бизус / Ramona and Beezus [фэнтези, комедия, приключения, семейный, 2010] HDRip, Mvo

salma3

15 | 4

1.45 ГБ

В этой теме нет новых непрочитанных сообщений. Скуби-Ду 4: Проклятье озерного монстра / Scooby-Doo! Curse of the Lake Monster [фэнтези, комедия, детектив, приключения, 2010] BDRip 1080p, Dvo+Sub

salma3

97 | 38

8.01 ГБ

В этой теме нет новых непрочитанных сообщений. Затерянный мир / Land of the Lost [фэнтези, комедия, приключения, 2009] BDRip 1080p, Dub

salma3

0 | 0

9.48 ГБ

В этой теме нет новых непрочитанных сообщений. Догма / Dogma [фэнтези, комедия, приключения, 1999] BDRip-HEVC 1080p, Dub

salma3

71 | 10

6.52 ГБ

В этой теме нет новых непрочитанных сообщений. Ужастики / Goosebumps [фэнтези, комедия, приключения, 2015] BDRip 1080p, dub [iTunes]

Dracon

2018 | 133

7.93 ГБ

В этой теме нет новых непрочитанных сообщений. Простое желание / A Simple Wish [Фэнтези, приключения, комедия, семейный, 1997] BDRip 1080p, Mvo

salma3

4 | 4

9.57 ГБ


Начать новую тему Ответить на тему  [ 1 сообщение ] 




Для Мосгорсуда, Роскомнадзора и рекламодателей:: mosgorsud-torrent[собачка]yandex.ru
cron