Торрент файл
скачать торрент магнет ссылка Добавлен: 30 сен 2015, 20:03
Размер: 9.01 ГБ
Сидеров: 27
Личеров: 4
Автор

СообщениеДобавлено: 30 сен 2015, 20:03 

Не в сети
Супермодератор
Аватара пользователя
Дата регистрации:
15 фев 2012, 16:44
Возраст: 28
Спасибо: 6563 / 2129
Сообщения: 43556
Год выпуска: 1996
Страна: США
Жанр: комедия
Продолжительность: 01:32:48
Перевод: профессиональный многоголосый

Режиссёр: Дэвид О. Расселл

В ролях: Бен Стиллер, Патриция Аркетт, Теа Леони, Алан Алда, Мэри Тайлер Мур, Джордж Сигал, Лили Томлин, Джош Бролин, Ричард Дженкинс, Селия Уэстон, Гленн Фицджералд, Бет Остроски, Синтия Ламонтейн, Дэвид Патрик Келли, Джон Форд Нунан, Надя Дажани, Дон Крич, Кларк Биттнер, Тони Крук, Джонатан Тига Кук, Стив Морено, Тори Дэвис, Шоун Майкл Ховард, Мишель Эммон, Сюзанн Снайдер

Описание: Мел Коплин, отец четырёхмесячного младенца, живёт в Нью-Йорке. Вдруг ему приходит в голову, что он никак не может дать имя своему ребёнку, не разыскав своих настоящих биологических родителей. Несмотря на яростные возражения очень шумных "приёмных" родителей, Мел, его несколько «отмороженная» жена Нэнси и младенец летят в Сан-Диего вместе с врачом-психиатром Тиной из агенства по усыновлению, вечно нервничающей и скандалящей из-за предстоящего ей развода...



Качество: BDRip 1080p Сравнение с исходником
Формат: MKV
Видео: MPEG-4 AVC, 12.1 Mбит/с, 1920х1038, 24 кадра/с
Аудио 1: русский, DTS, 768 kbps, 6 ch, 48 kHz [профессиональный многоголосый]
Аудио 2: английский, DTS, 768 kbps, 6 ch, 48 kHz [оригинал]
Субтитры: русские

Общее
Уникальный идентификатор : 244050317452134471897000194355951248771 (0xB79A61A5842973E98973417F49332583)
Полное имя : D:VideoНе будите спящую собаку.1996.BDRip.1080p.mkv
Формат : Matroska
Версия формата : Version 4 / Version 2
Размер файла : 9,01 Гбайт
Продолжительность : 1 ч. 32 м.
Общий поток : 13,9 Мбит/сек
Название фильма : BDRip -- STarankov
Дата кодирования : UTC 2015-09-30 02:11:47
Программа кодирования : mkvmerge v8.2.0 ('World of Adventure') 64bit
Библиотека кодирования : libebml v1.3.1 + libmatroska v1.4.2
DURATION : 01:32:48.459000000
NUMBER_OF_FRAMES : 522043
NUMBER_OF_BYTES : 534572100
_STATISTICS_WRITING_APP : mkvmerge v8.2.0 ('World of Adventure') 64bit
_STATISTICS_WRITING_DATE_UTC : 2015-09-30 02:11:47
_STATISTICS_TAGS : BPS DURATION NUMBER_OF_FRAMES NUMBER_OF_BYTES

Видео
Идентификатор : 1
Формат : AVC
Формат/Информация : Advanced Video Codec
Профиль формата : High@L4.1
Параметр CABAC формата : Да
Параметр ReFrames формата : 4 кадра
Идентификатор кодека : V_MPEG4/ISO/AVC
Продолжительность : 1 ч. 32 м.
Битрейт : 12,1 Мбит/сек
Ширина : 1920 пикселей
Высота : 1038 пикселей
Соотношение сторон : 1,85:1
Режим частоты кадров : Постоянный
Частота кадров : 24,000 кадра/сек
Цветовое пространство : YUV
Субдискретизация насыщенности : 4:2:0
Битовая глубина : 8 бит
Тип развёртки : Прогрессивная
Бит/(Пиксели*Кадры) : 0.253
Размер потока : 7,83 Гбайт (87%)
Библиотека кодирования : x264 core 146 r2538 121396c
Настройки программы : cabac=1 / ref=4 / deblock=1:-3:-3 / analyse=0x3:0x113 / me=umh / subme=10 / psy=1 / psy_rd=1.00:0.15 / mixed_ref=1 / me_range=32 / chroma_me=1 / trellis=2 / 8x8dct=1 / cqm=0 / deadzone=21,11 / fast_pskip=1 / chroma_qp_offset=-3 / threads=6 / lookahead_threads=1 / sliced_threads=0 / nr=0 / decimate=1 / interlaced=0 / bluray_compat=0 / constrained_intra=0 / bframes=12 / b_pyramid=2 / b_adapt=2 / b_bias=0 / direct=1 / weightb=1 / open_gop=0 / weightp=2 / keyint=230 / keyint_min=23 / scenecut=40 / intra_refresh=0 / rc_lookahead=40 / rc=crf / mbtree=0 / crf=18.9 / qcomp=0.60 / qpmin=0 / qpmax=69 / qpstep=4 / vbv_maxrate=40000 / vbv_bufsize=50000 / crf_max=0.0 / nal_hrd=none / filler=0 / ip_ratio=1.40 / pb_ratio=1.30 / aq=1:1.00
Язык : English
Default : Да
Forced : Нет
DURATION : 01:32:48.459000000
NUMBER_OF_FRAMES : 133643
NUMBER_OF_BYTES : 8597596477
_STATISTICS_WRITING_APP : mkvmerge v8.2.0 ('World of Adventure') 64bit
_STATISTICS_WRITING_DATE_UTC : 2015-09-30 02:11:47
_STATISTICS_TAGS : BPS DURATION NUMBER_OF_FRAMES NUMBER_OF_BYTES

Аудио #1
Идентификатор : 2
Формат : DTS
Формат/Информация : Digital Theater Systems
Режим : 16
Параметр Endianness формата : Big
Идентификатор кодека : A_DTS
Продолжительность : 1 ч. 32 м.
Вид битрейта : Постоянный
Битрейт : 768 Кбит/сек
Каналы : 6 каналов
Расположение каналов : Front: L C R, Side: L R, LFE
Частота : 48,0 КГц
Битовая глубина : 16 бит
Метод сжатия : С потерями
Размер потока : 510 Мбайт (6%)
Заголовок : MVO
Язык : Russian
Default : Да
Forced : Нет

Аудио #2
Идентификатор : 3
Формат : DTS
Формат/Информация : Digital Theater Systems
Режим : 16
Параметр Endianness формата : Big
Идентификатор кодека : A_DTS
Продолжительность : 1 ч. 32 м.
Вид битрейта : Постоянный
Битрейт : 768 Кбит/сек
Каналы : 6 каналов
Расположение каналов : Front: L C R, Side: L R, LFE
Частота : 48,0 КГц
Битовая глубина : 16 бит
Метод сжатия : С потерями
Размер потока : 510 Мбайт (6%)
Заголовок : Original
Язык : English
Default : Нет
Forced : Нет

Текст
Идентификатор : 4
Формат : UTF-8
Идентификатор кодека : S_TEXT/UTF8
Идентификатор кодека/Информация : UTF-8 Plain Text
Заголовок : русский
Язык : Russian
Default : Нет
Forced : Нет




_________________
Проголосуй за трекер Открытый торрент трекер - RUS-MEDIA.ORG

Проголосуй Открытый торрент трекер - RUS-MEDIA.ORG



реклама партнёра


Вернуться к началу
 Профиль Отправить личное сообщение  
 
   Похожие торренты   Автор   Торрент   Размер 
В этой теме нет новых непрочитанных сообщений. Не будите спящую собаку / Flirting with Disaster [комедия, 1996] BDRip 720p, Mvo

salma3

18 | 3

3.76 ГБ

В этой теме нет новых непрочитанных сообщений. Вторжение в Лос-Анджелес / Disaster L.A. / Apocalypse L.A. [ужасы, фантастика, боевик, 2014] BDRip 1080p, Avo+Sub

salma3

104 | 10

6.67 ГБ

В этой теме нет новых непрочитанных сообщений. Сержант Билко / Sgt. Bilko [комедия, 1996] BDRip 1080p, Mvo

salma3

91 | 28

8.54 ГБ

В этой теме нет новых непрочитанных сообщений. Дело - труба / Brassed Off [драма, мелодрама, комедия, 1996] BDRip 1080p, Mvo+Sub

salma3

15 | 2

14.65 ГБ

В этой теме нет новых непрочитанных сообщений. Марс атакует! / Mars Attacks! [1996, фантастика, комедия] BDRip-HEVC 1080p, Dub

salma3

59 | 32

4.62 ГБ

В этой теме нет новых непрочитанных сообщений. Первый удар / First Strike [Боевик, триллер, комедия, приключения, 1996] BDRip 1080p, Mvo

salma3

63 | 7

8.19 ГБ

В этой теме нет новых непрочитанных сообщений. Флирт с сорокалетней / Flirting with Forty (Микаэл Саломон / Mikael Salomon) [2008г., комедия, мелодрама, драма, DVDRip] MVO

Alfredovich

2 | 1

1.45 ГБ


Начать новую тему Ответить на тему  [ 1 сообщение ] 




Для Мосгорсуда, Роскомнадзора и рекламодателей:: mosgorsud-torrent[собачка]yandex.ru