Торрент файл
скачать торрент магнет ссылка Добавлен: 29 сен 2015, 12:59
Размер: 3.76 ГБ
Сидеров: 18
Личеров: 3
Автор

СообщениеДобавлено: 29 сен 2015, 12:59 

В сети
Супермодератор
Аватара пользователя
Дата регистрации:
15 фев 2012, 16:44
Возраст: 28
Спасибо: 6571 / 2137
Сообщения: 43783
Год выпуска: 1996
Страна: США
Жанр: комедия
Продолжительность: 01:32:48
Перевод: профессиональный многоголосый

Режиссёр: Дэвид О. Расселл

В ролях: Бен Стиллер, Патриция Аркетт, Теа Леони, Алан Алда, Мэри Тайлер Мур, Джордж Сигал, Лили Томлин, Джош Бролин, Ричард Дженкинс, Селия Уэстон, Гленн Фицджералд, Бет Остроски, Синтия Ламонтейн, Дэвид Патрик Келли, Джон Форд Нунан, Надя Дажани, Дон Крич, Кларк Биттнер, Тони Крук, Джонатан Тига Кук, Стив Морено, Тори Дэвис, Шоун Майкл Ховард, Мишель Эммон, Сюзанн Снайдер

Описание: Мел Коплин, отец четырёхмесячного младенца, живёт в Нью-Йорке. Вдруг ему приходит в голову, что он никак не может дать имя своему ребёнку, не разыскав своих настоящих биологических родителей. Несмотря на яростные возражения очень шумных "приёмных" родителей, Мел, его несколько «отмороженная» жена Нэнси и младенец летят в Сан-Диего вместе с врачом-психиатром Тиной из агенства по усыновлению, вечно нервничающей и скандалящей из-за предстоящего ей развода...



Качество: BDRip 720p Сравнение с исходником
Формат: MKV
Видео: MPEG-4 AVC, 4792 Кбит/с, 1280х692, 24 кадра/с
Аудио 1: русский, AC3, 448 kbps, 6 ch, 48 kHz [профессиональный многоголосый]
Аудио 2: английский, AC3, 448 kbps, 6 ch, 48 kHz [оригинал]
Субтитры: русские

Общее
Уникальный идентификатор : 229317616222500201339226597741527873870 (0xAC84F7650FFFD533B9375F001BB8B94E)
Полное имя : D:VideoНе будите спящую собаку.1996.BDRip.720p.mkv
Формат : Matroska
Версия формата : Version 4 / Version 2
Размер файла : 3,76 Гбайт
Продолжительность : 1 ч. 32 м.
Общий поток : 5804 Кбит/сек
Название фильма : BDRip -- STarankov
Дата кодирования : UTC 2015-09-29 04:14:27
Программа кодирования : mkvmerge v8.2.0 ('World of Adventure') 64bit
Библиотека кодирования : libebml v1.3.1 + libmatroska v1.4.2
DURATION : 01:27:05.499000000
NUMBER_OF_FRAMES : 1669
NUMBER_OF_BYTES : 123344
_STATISTICS_WRITING_APP : mkvmerge v8.2.0 ('World of Adventure') 64bit
_STATISTICS_WRITING_DATE_UTC : 2015-09-29 04:14:27
_STATISTICS_TAGS : BPS DURATION NUMBER_OF_FRAMES NUMBER_OF_BYTES

Видео
Идентификатор : 1
Формат : AVC
Формат/Информация : Advanced Video Codec
Профиль формата : High@L4.1
Параметр CABAC формата : Да
Параметр ReFrames формата : 9 кадров
Идентификатор кодека : V_MPEG4/ISO/AVC
Продолжительность : 1 ч. 32 м.
Битрейт : 4792 Кбит/сек
Ширина : 1280 пикселей
Высота : 692 пикселя
Соотношение сторон : 1,85:1
Режим частоты кадров : Постоянный
Частота кадров : 24,000 кадра/сек
Цветовое пространство : YUV
Субдискретизация насыщенности : 4:2:0
Битовая глубина : 8 бит
Тип развёртки : Прогрессивная
Бит/(Пиксели*Кадры) : 0.225
Размер потока : 3,11 Гбайт (83%)
Библиотека кодирования : x264 core 146 r2538 121396c
Настройки программы : cabac=1 / ref=9 / deblock=1:-3:-3 / analyse=0x3:0x113 / me=umh / subme=10 / psy=1 / psy_rd=1.00:0.15 / mixed_ref=1 / me_range=32 / chroma_me=1 / trellis=2 / 8x8dct=1 / cqm=0 / deadzone=21,11 / fast_pskip=1 / chroma_qp_offset=-3 / threads=6 / lookahead_threads=1 / sliced_threads=0 / nr=0 / decimate=1 / interlaced=0 / bluray_compat=0 / constrained_intra=0 / bframes=12 / b_pyramid=2 / b_adapt=2 / b_bias=0 / direct=1 / weightb=1 / open_gop=0 / weightp=2 / keyint=230 / keyint_min=23 / scenecut=40 / intra_refresh=0 / rc_lookahead=40 / rc=crf / mbtree=0 / crf=19.0 / qcomp=0.60 / qpmin=0 / qpmax=69 / qpstep=4 / vbv_maxrate=40000 / vbv_bufsize=50000 / crf_max=0.0 / nal_hrd=none / filler=0 / ip_ratio=1.40 / pb_ratio=1.30 / aq=1:1.00
Язык : English
Default : Да
Forced : Нет
DURATION : 01:32:48.459000000
NUMBER_OF_FRAMES : 133643
NUMBER_OF_BYTES : 3414465779
_STATISTICS_WRITING_APP : mkvmerge v8.2.0 ('World of Adventure') 64bit
_STATISTICS_WRITING_DATE_UTC : 2015-09-29 04:14:27
_STATISTICS_TAGS : BPS DURATION NUMBER_OF_FRAMES NUMBER_OF_BYTES

Аудио #1
Идентификатор : 2
Формат : AC-3
Формат/Информация : Audio Coding 3
Расширение режима : CM (complete main)
Параметр Endianness формата : Big
Идентификатор кодека : A_AC3
Продолжительность : 1 ч. 32 м.
Вид битрейта : Постоянный
Битрейт : 448 Кбит/сек
Каналы : 6 каналов
Расположение каналов : Front: L C R, Side: L R, LFE
Частота : 48,0 КГц
Метод сжатия : С потерями
Размер потока : 297 Мбайт (8%)
Заголовок : MVO
Язык : Russian
Default : Да
Forced : Нет

Аудио #2
Идентификатор : 3
Формат : AC-3
Формат/Информация : Audio Coding 3
Расширение режима : CM (complete main)
Параметр Endianness формата : Big
Идентификатор кодека : A_AC3
Продолжительность : 1 ч. 32 м.
Вид битрейта : Постоянный
Битрейт : 448 Кбит/сек
Каналы : 6 каналов
Расположение каналов : Front: L C R, Side: L R, LFE
Частота : 48,0 КГц
Метод сжатия : С потерями
Размер потока : 297 Мбайт (8%)
Заголовок : Original
Язык : English
Default : Нет
Forced : Нет

Текст
Идентификатор : 4
Формат : UTF-8
Идентификатор кодека : S_TEXT/UTF8
Идентификатор кодека/Информация : UTF-8 Plain Text
Заголовок : русский
Язык : Russian
Default : Нет
Forced : Нет




by msltel


_________________
Проголосуй за трекер Открытый торрент трекер - RUS-MEDIA.ORG

Проголосуй Открытый торрент трекер - RUS-MEDIA.ORG



реклама партнёра


Вернуться к началу
 Профиль Отправить личное сообщение  
 
   Похожие торренты   Автор   Торрент   Размер 
В этой теме нет новых непрочитанных сообщений. Не будите спящую собаку / Flirting with Disaster [комедия, 1996] BDRip 1080p, Mvo+Sub

salma3

27 | 4

9.01 ГБ

В этой теме нет новых непрочитанных сообщений. Вторжение в Лос-Анджелес / Disaster L.A. / Apocalypse L.A. [ужасы, фантастика, боевик, 2014] BDRip 720p, Avo+Sub

salma3

282 | 9

3.39 ГБ

В этой теме нет новых непрочитанных сообщений. Сержант Билко / Sgt. Bilko [Комедия, 1996] BDRip 720p, Mvo

salma3

78 | 20

6.77 ГБ

В этой теме нет новых непрочитанных сообщений. Только она единственная / She's the One [Комедия, мелодрама, 1996] BDRip 720p, Mvo+Sub

salma3

48 | 12

3.99 ГБ

В этой теме нет новых непрочитанных сообщений. Кабельщик / The Cable Guy [триллер, драма, комедия, 1996] BDRip 720p, Dub

salma3

7 | 3

7.21 ГБ

В этой теме нет новых непрочитанных сообщений. Красивые девушки / Beautiful Girls [комедия, драма, мелодрама, 1996] BDRip 720p, Dvo+Sub

salma3

60 | 26

7.08 ГБ

В этой теме нет новых непрочитанных сообщений. Флирт с сорокалетней / Flirting with Forty (Микаэл Саломон / Mikael Salomon) [2008г., комедия, мелодрама, драма, DVDRip] MVO

Alfredovich

2 | 1

1.45 ГБ


Начать новую тему Ответить на тему  [ 1 сообщение ] 




Для Мосгорсуда, Роскомнадзора и рекламодателей:: mosgorsud-torrent[собачка]yandex.ru