Торрент файл
скачать торрент магнет ссылка Добавлен: 21 сен 2015, 19:16
Размер: 4.16 ГБ
Сидеров: 144
Личеров: 8
Автор

СообщениеДобавлено: 21 сен 2015, 19:16 

Не в сети
Супермодератор
Аватара пользователя
Дата регистрации:
15 фев 2012, 16:44
Возраст: 28
Спасибо: 7223 / 2147
Сообщения: 67839
Год выпуска: 2007
Страна: Австралия
Жанр: ужасы, триллер
Продолжительность: 01:26:14
Перевод: дублированный, любительский одноголосый

Режиссёр: Джэми Блэнкс

В ролях: Надя Фарес, Роберт Тейлор (II), Дэвид Лайонс, Мэттью Уилкинсон, Джон Брамптон, Джонатан Олдхэм, Пюсс

Описание: Роб и Пиа, семейная пара, отправляются на лодочную прогулку и попадают в страшную бурю. Их лодка разбита, они выброшены в совершенно безлюдном и жутком месте, окружённом непроходимым лесом. В попытке спрятаться от бушующего дождя и ветра молодые люди находят, как им кажется, заброшенную ферму, в которой обнаруживают большое количество марихуаны. Теперь они понимают, что если вдруг объявится хозяин, им ничего хорошего не светит, но они и не предполагают, что за ужас их ждет...



Качество: BDRip 720p Сравнение с исходником
Формат: MKV
Видео: MPEG-4 AVC, 5677 Кбит/с, 1280x720, 23,976 кадра/с
Аудио 1: русский, AC3, 448 kbps, 6 ch, 48 kHz [дублированный, R5]
Аудио 2: русский, AC3, 192 kbps, 2 ch, 48 kHz [любительский одноголосый, Хихидок]
Аудио 3: английский, AC3, 448 kbps, 6 ch, 48 kHz [оригинал]
Субтитры 1: русские (форсированные)
Субтитры 2: русские
Субтитры 3: английские

Общее
Уникальный идентификатор : 198269540437617707981865465288741633867 (0x952953125BA3E80D88C022B093F43F4B)
Полное имя : D:VideoШтормовое предупреждение.2007.BDRip.720p.mkv
Формат : Matroska
Версия формата : Version 4 / Version 2
Размер файла : 4,16 Гбайт
Продолжительность : 1 ч. 26 м.
Общий поток : 6902 Кбит/сек
Название фильма : BDRip -- STarankov
Дата кодирования : UTC 2015-09-20 14:31:40
Программа кодирования : mkvmerge v8.2.0 ('World of Adventure') 64bit
Библиотека кодирования : libebml v1.3.1 + libmatroska v1.4.2
DURATION : 01:21:07.051000000
NUMBER_OF_FRAMES : 757
NUMBER_OF_BYTES : 21806
_STATISTICS_WRITING_APP : mkvmerge v8.2.0 ('World of Adventure') 64bit
_STATISTICS_WRITING_DATE_UTC : 2015-09-20 14:31:40
_STATISTICS_TAGS : BPS DURATION NUMBER_OF_FRAMES NUMBER_OF_BYTES

Видео
Идентификатор : 1
Формат : AVC
Формат/Информация : Advanced Video Codec
Профиль формата : High@L4.1
Параметр CABAC формата : Да
Параметр ReFrames формата : 9 кадров
Идентификатор кодека : V_MPEG4/ISO/AVC
Продолжительность : 1 ч. 26 м.
Битрейт : 5677 Кбит/сек
Ширина : 1280 пикселей
Высота : 720 пикселей
Соотношение сторон : 16:9
Режим частоты кадров : Постоянный
Частота кадров : 23,976 кадра/сек
Цветовое пространство : YUV
Субдискретизация насыщенности : 4:2:0
Битовая глубина : 8 бит
Тип развёртки : Прогрессивная
Бит/(Пиксели*Кадры) : 0.257
Размер потока : 3,42 Гбайт (82%)
Библиотека кодирования : x264 core 146 r2538 121396c
Настройки программы : cabac=1 / ref=9 / deblock=1:-2:-2 / analyse=0x3:0x113 / me=umh / subme=10 / psy=1 / psy_rd=1.00:0.15 / mixed_ref=1 / me_range=32 / chroma_me=1 / trellis=2 / 8x8dct=1 / cqm=0 / deadzone=21,11 / fast_pskip=1 / chroma_qp_offset=-3 / threads=6 / lookahead_threads=1 / sliced_threads=0 / nr=0 / decimate=1 / interlaced=0 / bluray_compat=0 / constrained_intra=0 / bframes=12 / b_pyramid=2 / b_adapt=2 / b_bias=0 / direct=1 / weightb=1 / open_gop=0 / weightp=2 / keyint=230 / keyint_min=23 / scenecut=40 / intra_refresh=0 / rc_lookahead=40 / rc=crf / mbtree=0 / crf=19.5 / qcomp=0.60 / qpmin=0 / qpmax=69 / qpstep=4 / vbv_maxrate=40000 / vbv_bufsize=50000 / crf_max=0.0 / nal_hrd=none / filler=0 / ip_ratio=1.40 / pb_ratio=1.30 / aq=1:1.00
Язык : English
Default : Да
Forced : Нет
DURATION : 01:26:13.919000000
NUMBER_OF_FRAMES : 124050
NUMBER_OF_BYTES : 3758860468
_STATISTICS_WRITING_APP : mkvmerge v8.2.0 ('World of Adventure') 64bit
_STATISTICS_WRITING_DATE_UTC : 2015-09-20 14:31:40
_STATISTICS_TAGS : BPS DURATION NUMBER_OF_FRAMES NUMBER_OF_BYTES

Аудио #1
Идентификатор : 2
Формат : AC-3
Формат/Информация : Audio Coding 3
Расширение режима : CM (complete main)
Параметр Endianness формата : Big
Идентификатор кодека : A_AC3
Продолжительность : 1 ч. 26 м.
Вид битрейта : Постоянный
Битрейт : 448 Кбит/сек
Каналы : 6 каналов
Расположение каналов : Front: L C R, Side: L R, LFE
Частота : 48,0 КГц
Метод сжатия : С потерями
Размер потока : 276 Мбайт (6%)
Заголовок : DUB (R5)
Язык : Russian
Default : Да
Forced : Нет

Аудио #2
Идентификатор : 3
Формат : AC-3
Формат/Информация : Audio Coding 3
Расширение режима : CM (complete main)
Параметр Endianness формата : Big
Идентификатор кодека : A_AC3
Продолжительность : 1 ч. 26 м.
Вид битрейта : Постоянный
Битрейт : 192 Кбит/сек
Каналы : 2 канала
Расположение каналов : Front: L R
Частота : 48,0 КГц
Метод сжатия : С потерями
Размер потока : 118 Мбайт (3%)
Заголовок : VO (любительский одноголосый, Хихидок)
Язык : Russian
Default : Нет
Forced : Нет

Аудио #3
Идентификатор : 4
Формат : AC-3
Формат/Информация : Audio Coding 3
Расширение режима : CM (complete main)
Параметр Endianness формата : Big
Идентификатор кодека : A_AC3
Продолжительность : 1 ч. 26 м.
Вид битрейта : Постоянный
Битрейт : 448 Кбит/сек
Каналы : 6 каналов
Расположение каналов : Front: L C R, Side: L R, LFE
Частота : 48,0 КГц
Метод сжатия : С потерями
Размер потока : 276 Мбайт (6%)
Заголовок : Original
Язык : English
Default : Нет
Forced : Нет

Текст #1
Идентификатор : 5
Формат : UTF-8
Идентификатор кодека : S_TEXT/UTF8
Идентификатор кодека/Информация : UTF-8 Plain Text
Заголовок : русский (форсированные)
Язык : Russian
Default : Да
Forced : Да

Текст #2
Идентификатор : 6
Формат : UTF-8
Идентификатор кодека : S_TEXT/UTF8
Идентификатор кодека/Информация : UTF-8 Plain Text
Заголовок : русский
Язык : Russian
Default : Нет
Forced : Нет

Текст #3
Идентификатор : 7
Формат : UTF-8
Идентификатор кодека : S_TEXT/UTF8
Идентификатор кодека/Информация : UTF-8 Plain Text
Заголовок : английский
Default : Нет
Forced : Нет




_________________
Проголосуй за трекер Открытый торрент трекер - RUS-MEDIA.ORG

Проголосуй Открытый торрент трекер - RUS-MEDIA.ORG


Вернуться к началу
 Профиль Отправить личное сообщение  
 
   Похожие торренты   Автор   Торрент   Размер 
В этой теме нет новых непрочитанных сообщений. Ночное предупреждение / Night Warning [ужасы, 1982] BDRip 720p, Avo

salma3

32 | 17

5.88 ГБ

В этой теме нет новых непрочитанных сообщений. Ночное предупреждение / Night Warning [ужасы, 1982] BDRemux 1080р, Avo

salma3

21 | 9

18.53 ГБ

В этой теме нет новых непрочитанных сообщений. Чернобыль: Последнее предупреждение / Chernobyl: The Final Warning [драма, 1991] DVDRip, Dub

salma3

328 | 59

744.1 МБ

В этой теме нет новых непрочитанных сообщений. Репортаж / [Rec] [Ужасы, триллер, 2007] BDRip 720p, Dub

salma3

0 | 1

4.37 ГБ

В этой теме нет новых непрочитанных сообщений. Из-под земли / Unearthed [ужасы, триллер, 2007] BDRip 720p, Mvo

salma3

76 | 78

4.66 ГБ

В этой теме нет новых непрочитанных сообщений. Лучшие из лучших 4: Без предупреждения / Best of the Best: Without Warning [боевик, триллер, приключения, 1998] BDRip, Mvo

salma3

42 | 23

1.45 ГБ

В этой теме нет новых непрочитанных сообщений. Бугимен 2 / Boogeyman 2 [ужасы, триллер, драма, 2007] BDRip 720p, Dub [iPad]

salma3

0 | 0

1.67 ГБ


Начать новую тему Ответить на тему  [ 1 сообщение ] 




Для Мосгорсуда, Роскомнадзора и рекламодателей:: mosgorsud-torrent[собачка]yandex.ru
cron