Торрент файл
скачать торрент магнет ссылка Добавлен: 19 сен 2015, 12:06
Размер: 7.76 ГБ
Сидеров: 258
Личеров: 14
Автор

СообщениеДобавлено: 19 сен 2015, 12:06 

Не в сети
Супермодератор
Аватара пользователя
Дата регистрации:
15 фев 2012, 16:44
Возраст: 28
Спасибо: 7290 / 2147
Сообщения: 70480
Год выпуска: 2006
Жанр: Триллер, драма, криминал

Режиссер: Брюс Бирсфорд

В ролях: Морган Фримен, Джон Кьюсак, Джэми Андерсон, Элис Крайдж, Меган Доддс, Кори Джонсон, Джонатан Хайд, Билл Смитрович, Энтони Уоррен, Томас Локйер, Нед Беллами, Гари Вилан, Йен Шоу, Атанас Сребрев, Мейнард Эзиаши, Уильям Тэпли, Райан МакКласки, Оуэн Тейлор, Марк Джонсон, Мишель Ньюэлл, Эрик Мейерс, Йонас Токингтон, Маргарита Блаш, Джон Хансен

О фильме: Овдовевший бывший полицейский Рей вместе со своим сыном­-подростком Крисом, отправляются в пеший поход по национальному парку в горах. Тут они встречаются с Франком, профессиональным убийцей в наручниках, который только что сбежал из-под конвоя. Рей твердо намерен предоставить Франка правосудию. Однако он не понимает, во что ввязался — за ними по горячим следам идут люди Франка. Кому улыбнется удача? Сможет ли Рей уберечь Криса и довести дело до конца?..



Выпущено: Германия, США, Millennium Films, Contract Productions, Emmett/Furla Films
Продолжительность: 01:36:05
Перевод: Профессиональный многоголосый

Качество: BDRip (1080p)
Видео: MPEG4 AVC, 10631 Кбит/с, 1920x806
Аудио: Русский, английский (AC3, 6 ch, 448 Кбит/с)
Субтитры: Английские

Формат : Matroska
Версия формата : Version 2
Размер файла : 7,76 Гбайт
Продолжительность : 1 ч. 36 м.
Общий поток : 11,5 Мбит/сек
Название фильма : ~V ad~
Дата кодирования : UTC 2015-09-18 16:09:40
Программа кодирования : mkvmerge v6.5.0 ('Isn't she lovely') built on Oct 20 2013 12:50:05
Библиотека кодирования : libebml v1.3.0 + libmatroska v1.4.1

Видео
Идентификатор : 1
Формат : AVC
Формат/Информация : Advanced Video Codec
Профиль формата : High@L4.1
Параметр CABAC формата : Да
Параметр ReFrames формата : 5 кадров
Идентификатор кодека : V_MPEG4/ISO/AVC
Продолжительность : 1 ч. 36 м.
Битрейт : 10,6 Мбит/сек
Ширина : 1920 пикселей
Высота : 806 пикселей
Соотношение сторон : 2,40:1
Режим частоты кадров : Постоянный
Частота кадров : 23,976 кадра/сек
Цветовое пространство : YUV
Субдискретизация насыщенности : 4:2:0
Битовая глубина : 8 бит
Тип развёртки : Прогрессивная
Бит/(Пиксели*Кадры) : 0.287
Размер потока : 7,00 Гбайт (90%)
Заголовок : ~V~
Библиотека кодирования : x264 core 148 r2579 73ae2d1
Настройки программы : cabac=1 / ref=5 / deblock=1:-3:-3 / analyse=0x3:0x113 / me=umh / subme=11 / psy=1 / psy_rd=1.05:0.03 / mixed_ref=1 / me_range=32 / chroma_me=1 / trellis=2 / 8x8dct=1 / cqm=0 / deadzone=21,11 / fast_pskip=0 / chroma_qp_offset=-2 / threads=12 / lookahead_threads=1 / sliced_threads=0 / nr=0 / decimate=0 / interlaced=0 / bluray_compat=0 / constrained_intra=0 / bframes=7 / b_pyramid=2 / b_adapt=2 / b_bias=0 / direct=3 / weightb=1 / open_gop=0 / weightp=2 / keyint=240 / keyint_min=23 / scenecut=40 / intra_refresh=0 / rc=2pass / mbtree=0 / bitrate=10631 / ratetol=1.0 / qcomp=0.60 / qpmin=0 / qpmax=69 / qpstep=4 / cplxblur=20.0 / qblur=0.5 / ip_ratio=1.40 / pb_ratio=1.30 / aq=1:0.80
Язык : English
Default : Да
Forced : Нет

Аудио #1
Идентификатор : 2
Формат : AC-3
Формат/Информация : Audio Coding 3
Расширение режима : CM (complete main)
Параметр Endianness формата : Big
Идентификатор кодека : A_AC3
Продолжительность : 1 ч. 36 м.
Вид битрейта : Постоянный
Битрейт : 448 Кбит/сек
Каналы : 6 каналов
Расположение каналов : Front: L C R, Side: L R, LFE
Частота : 48,0 КГц
Метод сжатия : С потерями
Задержка видео : 16 с.
Размер потока : 309 Мбайт (4%)
Заголовок : Русский (MVO)
Язык : Russian
Default : Да
Forced : Да

Аудио #2
Идентификатор : 3
Формат : AC-3
Формат/Информация : Audio Coding 3
Расширение режима : CM (complete main)
Параметр Endianness формата : Big
Идентификатор кодека : A_AC3
Продолжительность : 1 ч. 36 м.
Вид битрейта : Постоянный
Битрейт : 448 Кбит/сек
Каналы : 6 каналов
Расположение каналов : Front: L C R, Side: L R, LFE
Частота : 48,0 КГц
Метод сжатия : С потерями
Размер потока : 309 Мбайт (4%)
Заголовок : Английский
Язык : English
Default : Нет
Forced : Нет

Текст
Идентификатор : 4
Формат : UTF-8
Идентификатор кодека : S_TEXT/UTF8
Идентификатор кодека/Информация : UTF-8 Plain Text
Заголовок : Английские
Язык : English
Default : Нет
Forced : Нет

Меню
00:00:00.000 : :Main Title
00:08:43.731 : :A Better Deal
00:16:14.723 : :Nature Calls
00:23:17.229 : :Call 911
00:31:34.767 : :The Storm
00:41:26.942 : :Stopping for a Picnic
00:50:29.067 : :Something Screwed Up
00:58:15.074 : :Over Here
01:06:09.882 : :Lily Lake
01:11:54.017 : :Give Us Garden
01:19:45.655 : :Hammond Senior
01:29:46.130 : :Credits
01:36:20.774 : :The End

x264 [info]: frame I:1104 Avg QP:15.11 size:215396
x264 [info]: frame P:32051 Avg QP:16.88 size: 98889
x264 [info]: frame B:105468 Avg QP:19.39 size: 40518
x264 [info]: consecutive B-frames: 3.3% 4.3% 12.1% 11.1% 4.8% 63.6% 0.7% 0.1%


Релиз от:


_________________
Проголосуй за трекер Открытый торрент трекер - RUS-MEDIA.ORG

Проголосуй Открытый торрент трекер - RUS-MEDIA.ORG


Вернуться к началу
 Профиль Отправить личное сообщение  
 
   Похожие торренты   Автор   Торрент   Размер 
В этой теме нет новых непрочитанных сообщений. Контракт / The Contract [боевик, триллер, драма, криминал, 2006] BDRip, Mvo [Лицензия]

salma3

321 | 11

1.46 ГБ

В этой теме нет новых непрочитанных сообщений. Контракт / The Contract (Ник Ауэрбах / Nic Auerbach) [2015г., Великобритания, боевик, триллер, криминал, HDRip] VO

Alfredovich

85 | 2

1.31 ГБ

В этой теме нет новых непрочитанных сообщений. Человеческий контракт / The Human Contract [Драма, 2008] BDRip 1080р, Dvo

salma3

37 | 27

7.94 ГБ

В этой теме нет новых непрочитанных сообщений. Контракт Киллера / The Contract [боевик, криминал, 1999] DVDRip, Dvo

salma3

7 | 3

1.41 ГБ

В этой теме нет новых непрочитанных сообщений. Контракт на убийство / Contract to Kill [боевик, 2016] BDRip-AVC, Mvo

salma3

148 | 21

1.46 ГБ

В этой теме нет новых непрочитанных сообщений. Юные Титаны: Контракт Иуды / Teen Titans: The Judas Contract [мультфильм, фантастика, фэнтези, 2017] BDRemux 1080p, Mvo

salma3

141 | 46

12.44 ГБ

В этой теме нет новых непрочитанных сообщений. Контракт на убийство / Contract to Kill [боевик, 2016] WEB-DLRip, Mvo

salma3

1265 | 173

1.37 ГБ


Начать новую тему Ответить на тему  [ 1 сообщение ] 




Для Мосгорсуда, Роскомнадзора и рекламодателей:: mosgorsud-torrent[собачка]yandex.ru
cron