Торрент файл
скачать торрент магнет ссылка Добавлен: 09 сен 2015, 11:37
Размер: 7.08 ГБ
Сидеров: 53
Личеров: 8
Автор

СообщениеДобавлено: 09 сен 2015, 11:37 

Не в сети
Зам. Админа
Аватара пользователя
Дата регистрации:
02 дек 2010, 12:39
Спасибо: 12656 / 214
Сообщения: 28010
Год выпуска: 2013
Жанр: Драма, комедия
Режиссер: Фил Моррисон
В ролях: Пол Джаматти, Пол Радд, Салли Хокинс, Эми Ландекер, Майкл Дрэйер, Колман Доминго, Хэлли Фейффер, Никки М. Джеймс
О фильме:
Фильм расскажет о юмористических подвигах пары предприимчивых ребят, которые решают объединить свои усилия для того, чтобы быстро заработать денег на продаже елок в канун Рождества в Нью-Йорке.


Страна: США, GreeneStreet Films Inc., Sidney Kimmel Entertainment, Touchy Feely Films
Продолжительность: 01:47:24
Перевод: Любительский одноголосый (Павел Морозов aka PashaUp) - по субтитрам anton1

Кодек: H.264
Качество: BDRip 720p
Видео: MPEG-4 AVC, 5777 Кбит/с, 1280x532, 23.976 кадр/с
Звук: Русский, английский (DTS, 6 ch, 1510 Кбит/с), русский (AC3, 6 ch, 640 Кбит/с)
Субтитры: Английские

Полное имя : E:All.Is.Bright.2013.x264.BDRip.720p.NovaLan.mkv
Формат : Matroska
Версия формата : Version 4 / Version 2
Размер файла : 7,08 Гбайт
Продолжительность : 1 ч. 47 м.
Общий поток : 9435 Кбит/сек
Название фильма : All Is Bright 2013 - NovaLan
Дата кодирования : UTC 2015-09-08 18:10:40
Программа кодирования : mkvmerge v8.3.0 ('Over the Horizon') 64bit
Библиотека кодирования : libebml v1.3.1 + libmatroska v1.4.2
DURATION : 01:39:43.128000000
NUMBER_OF_FRAMES : 1275
NUMBER_OF_BYTES : 36216
_STATISTICS_WRITING_APP : mkvmerge v8.3.0 ('Over the Horizon') 64bit
_STATISTICS_WRITING_DATE_UTC : 2015-09-08 18:10:40
_STATISTICS_TAGS : BPS DURATION NUMBER_OF_FRAMES NUMBER_OF_BYTES

Видео
Идентификатор : 1
Формат : AVC
Формат/Информация : Advanced Video Codec
Профиль формата : High@L4.1
Параметр CABAC формата : Да
Параметр ReFrames формата : 8 кадров
Идентификатор кодека : V_MPEG4/ISO/AVC
Продолжительность : 1 ч. 47 м.
Битрейт : 5777 Кбит/сек
Ширина : 1280 пикселей
Высота : 532 пикселя
Соотношение сторон : 2,40:1
Частота кадров : 23,976 кадра/сек
Цветовое пространство : YUV
Субдискретизация насыщенности : 4:2:0
Битовая глубина : 8 бит
Тип развёртки : Прогрессивная
Бит/(Пиксели*Кадры) : 0.354
Размер потока : 4,19 Гбайт (59%)
Заголовок : Sergei7721
Библиотека кодирования : x264 core 146 r2538 121396c
Настройки программы : cabac=1 / ref=8 / deblock=1:-1:-1 / analyse=0x3:0x113 / me=umh / subme=11 / psy=1 / psy_rd=1.00:0.20 / mixed_ref=1 / me_range=32 / chroma_me=1 / trellis=2 / 8x8dct=1 / cqm=0 / deadzone=21,11 / fast_pskip=0 / chroma_qp_offset=-3 / threads=12 / lookahead_threads=1 / sliced_threads=0 / nr=0 / decimate=0 / interlaced=0 / bluray_compat=0 / constrained_intra=0 / bframes=6 / b_pyramid=2 / b_adapt=2 / b_bias=0 / direct=3 / weightb=1 / open_gop=0 / weightp=2 / keyint=240 / keyint_min=23 / scenecut=40 / intra_refresh=0 / rc_lookahead=40 / rc=2pass / mbtree=0 / bitrate=5777 / ratetol=1.0 / qcomp=0.60 / qpmin=0 / qpmax=69 / qpstep=4 / cplxblur=20.0 / qblur=0.5 / vbv_maxrate=50000 / vbv_bufsize=62500 / nal_hrd=none / filler=0 / ip_ratio=1.40 / pb_ratio=1.30 / aq=1:1.00
Default : Да
Forced : Нет
DURATION : 01:47:24.730000000
NUMBER_OF_FRAMES : 154519
NUMBER_OF_BYTES : 4650909800
_STATISTICS_WRITING_APP : mkvmerge v8.3.0 ('Over the Horizon') 64bit
_STATISTICS_WRITING_DATE_UTC : 2015-09-08 18:10:40
_STATISTICS_TAGS : BPS DURATION NUMBER_OF_FRAMES NUMBER_OF_BYTES

Аудио #1
Идентификатор : 2
Формат : AC-3
Формат/Информация : Audio Coding 3
Расширение режима : CM (complete main)
Параметр Endianness формата : Big
Идентификатор кодека : A_AC3
Продолжительность : 1 ч. 47 м.
Вид битрейта : Постоянный
Битрейт : 640 Кбит/сек
Каналы : 6 каналов
Расположение каналов : Front: L C R, Side: L R, LFE
Частота : 48,0 КГц
Битовая глубина : 16 бит
Метод сжатия : С потерями
Размер потока : 492 Мбайт (7%)
Язык : Russian
Default : Да
Forced : Нет

Аудио #2
Идентификатор : 3
Формат : DTS
Формат/Информация : Digital Theater Systems
Идентификатор кодека : A_DTS
Продолжительность : 1 ч. 47 м.
Вид битрейта : Постоянный
Битрейт : 1510 Кбит/сек
Каналы : 6 каналов
Расположение каналов : Front: L C R, Side: L R, LFE
Частота : 48,0 КГц
Битовая глубина : 24 бит
Метод сжатия : С потерями
Размер потока : 1,13 Гбайт (16%)
Язык : Russian
Default : Нет
Forced : Нет

Аудио #3
Идентификатор : 4
Формат : DTS
Формат/Информация : Digital Theater Systems
Идентификатор кодека : A_DTS
Продолжительность : 1 ч. 47 м.
Вид битрейта : Постоянный
Битрейт : 1510 Кбит/сек
Каналы : 6 каналов
Расположение каналов : Front: L C R, Side: L R, LFE
Частота : 48,0 КГц
Битовая глубина : 24 бит
Метод сжатия : С потерями
Размер потока : 1,13 Гбайт (16%)
Язык : English
Default : Нет
Forced : Нет

Текст
Идентификатор : 5
Формат : UTF-8
Идентификатор кодека : S_TEXT/UTF8
Идентификатор кодека/Информация : UTF-8 Plain Text
Язык : English
Default : Нет
Forced : Нет

Меню
00:00:00.000 : en:00:00:00.000
00:04:08.290 : en:00:04:08.290
00:12:22.825 : en:00:12:22.825
00:18:48.127 : en:00:18:48.127
00:27:04.957 : en:00:27:04.957
00:36:03.912 : en:00:36:03.912
00:41:11.761 : en:00:41:11.761
00:48:11.055 : en:00:48:11.055
00:55:49.054 : en:00:55:49.054
01:01:56.087 : en:01:01:56.087
01:06:58.765 : en:01:06:58.765
01:11:30.995 : en:01:11:30.995
01:16:56.487 : en:01:16:56.487
01:22:51.967 : en:01:22:51.967
01:32:17.407 : en:01:32:17.407
01:43:52.309 : en:01:43:52.309




Вернуться к началу
 Профиль  
 
   Похожие торренты   Автор   Торрент   Размер 
В этой теме нет новых непрочитанных сообщений. Почти Рождество / All Is Bright (Фил Моррисон) [комедия, драма, 2013] BDRip 1080p, avo

Dracon

52 | 3

10.09 ГБ

В этой теме нет новых непрочитанных сообщений. Почти Рождество / All Is Bright (Фил Моррисон) [комедия, драма, 2013] HDRip, avo

Dracon

401 | 34

1.45 ГБ

В этой теме нет новых непрочитанных сообщений. Mandy Bright (Mandy Brigh, Mandy B., Mandi Bright, Mandy Bryght, Mrs. Bright, Moniq, Mandy, Monika, Monica Bright)(117 роликов)[2001-2011 г.г., European, Anal, DP, DaP, DvP, Group Sex, Interracial, Solo, Outdoor, Lesbians, GangBang]

salma3

11 | 23

33.46 ГБ

В этой теме нет новых непрочитанных сообщений. Рождество Чарли Брауна / A Charlie Brown Christmas [мультфильм, комедия, семейный, короткометражка, 1965] BDRip 720p, Mvo

salma3

28 | 11

2.32 ГБ

В этой теме нет новых непрочитанных сообщений. Рождество Мэйерсов / Almost Christmas [Драма, комедия, 2016] WEB-DLRip 720p, Dvo

salma3

95 | 26

3.22 ГБ

В этой теме нет новых непрочитанных сообщений. Солнечные псы / Sun Dogs (Дженнифер Моррисон / Sun Dogs) [2017г., драма, комедия, WEB-DLRip] MVO

Alfredovich

51 | 11

1.37 ГБ

В этой теме нет новых непрочитанных сообщений. Человек, который изобрёл Рождество / The Man Who Invented Christmas [Драма, комедия, биография, 2017] BDRip 1080p, Mvo

salma3

20 | 29

8.87 ГБ


Начать новую тему Ответить на тему  [ 1 сообщение ] 




Для Мосгорсуда, Роскомнадзора и рекламодателей:: mosgorsud-torrent[собачка]yandex.ru
cron