Торрент файл
скачать торрент магнет ссылка Добавлен: 06 сен 2015, 19:10
Размер: 5.08 ГБ
Сидеров: 13
Личеров: 2
Автор

СообщениеДобавлено: 06 сен 2015, 19:10 

Не в сети
Аватара пользователя
Дата регистрации:
09 авг 2014, 12:07
Спасибо: 63 / 1
Сообщения: 230
Откуда: КРАСНОГОРСК
Шпион / Spy



Год выпуска: 2015
Выпущено: США, Feigco Entertainment, Twentieth Century Fox
Жанр: Боевик, Комедия, Криминал
Продолжительность: 02:10:51
Озвучка # 1 :Русский : [ Дубляж -Чистый звук] [ Официальный iTunes]
Озвучка #2 :Русский : - Авторский одноголосый (Яроцкий)
Озвучка # 3 :Украинский: [ Дубляж - Чистый звук] [ Официальный iTunes]
Озвучка # 4 :Английский : - Оригинал
Субтитры: Russian (Forced, iTunes), Russian (iTunes), Ukrainian (iTunes), English (Forced, iTunes), English (iTunes)



Режиссер: Пол Фиг

В ролях: Мелисса МакКарти, Джейсон Стэйтем, Джуд Лоу, Роуз Бирн, Миранда Харт, Бобби Каннавейл, Морена Баккарин, Раад Рави, Джессика Чаффин, Сэм Ричардсон, Кэти Дипполд, Джейм Пачеко, Ромейн Апельбаум, Ричард Брэйк, Стив Баннос, Карлос Понсе, Уилл Юн Ли, Майкл МакДональд, Адам Рэй, Лукач Бичкеи

Сьюзан Купер всю свою жизнь мечтала стать секретным агентом и даже устроилась работать в ЦРУ. Однако, дальше сотрудника самой низкой ступени ей так и не удалось продвинуться. Понимая, что осуществить свою мечту практически невозможно, она все-таки продолжает надеяться на лучшее и с нетерпением ожидает своего шанса. И вскоре судьба дарит ей такую возможность. Лучший агент проваливает секретное задание, в ходе которого он должен был выяснить местонахождение ядерной бомбы, но, совершенно случайно, застрелил единственного человека, владеющего этой информацией.

Через некоторое время службе разведки становится известно, что Рейна Боянова знает, где находится бомба, но она также знает в лицо всех секретных агентов ЦРУ. Теперь у руководства не остается другого выбора, как воспользоваться услугами Сьюзан Купер, но сможет ли она справиться со столь сложной миссией?..





Качество :WEB-DLRip-AVC 7200p
Формат: MKV
Видео кодек: H264
Видео: 3927Кбит/сек,1280х534(2.40),в 23.976кадр/сек,AVC(Main@L3.1)(2 Ref Frames)
Аудио Кодек:AC3
Аудио #1:AC3 , 384 Kbps, 48.0 KHz, 6 ch- -Русский - Дубляж -iTunes
Аудио #2: AC3, 256 Kbps, 48.0 KHz, 6 ch - -Русский - Авторский одноголосый (Яроцкий)
Аудио #3: AC3, 256 Kbps, 48.0 KHz, 6 ch - - Украинский -Дубляж -iTunes
Аудио #4: AC3, 256 Kbps, 48.0 KHz, 6 ch - - Английский- Оригинал

Общее
Уникальный идентификатор : 188583817901276896981021864938186178531 (0x8DDFEC14CB4ED97CAB1CB3B19FD37FE3)
Полное имя : F:\К ИНО\К О М Е Д И И\Ш П И О Н\Spy_2015_Extended_Н264_DD5.1_N.B_WEB-DLRip_720р_2хRus_Ukr_Eng\Spy_2015_Extended_Н264_DD5.1_N.B_WEB-DLRip_720р_2хRus_Ukr_Eng.mkv
Формат : Matroska
Версия формата : Version 4 / Version 2
Размер файла : 4,74 Гбайт
Продолжительность : 2 ч. 10 м.
Общий поток : 5183 Кбит/сек
Название фильма : Spy (2015) - Release for HDCLUB
Дата кодирования : UTC 2015-09-05 18:32:19
Программа кодирования : mkvmerge v8.3.0 ('Over the Horizon') 64bit
Библиотека кодирования : libebml v1.3.1 + libmatroska v1.4.2
DURATION : 02:10:21.920000000
NUMBER_OF_FRAMES : 244435
NUMBER_OF_BYTES : 250301440
_STATISTICS_WRITING_APP : mkvmerge v8.3.0 ('Over the Horizon') 64bit
_STATISTICS_WRITING_DATE_UTC : 2015-09-05 18:32:19
_STATISTICS_TAGS : BPS DURATION NUMBER_OF_FRAMES NUMBER_OF_BYTES

Видео
Идентификатор : 1
Формат : AVC
Формат/Информация : Advanced Video Codec
Профиль формата : Main@L3.1
Параметр CABAC формата : Нет
Параметр ReFrames формата : 2 кадра
Идентификатор кодека : V_MPEG4/ISO/AVC
Продолжительность : 2 ч. 10 м.
Битрейт : 3927 Кбит/сек
Ширина : 1280 пикселей
Высота : 534 пикселя
Соотношение сторон : 2,40:1
Режим частоты кадров : Постоянный
Частота кадров : 23,976 кадра/сек
Цветовое пространство : YUV
Субдискретизация насыщенности : 4:2:0
Битовая глубина : 8 бит
Тип развёртки : Прогрессивная
Бит/(Пиксели*Кадры) : 0.240
Размер потока : 3,59 Гбайт (76%)
Заголовок : Spy (2015) - Release for HDCLUB
Язык : English
Default : Да
Forced : Нет
Цветовой диапазон : Limited
Основные цвета : BT.709
Характеристики трансфера : BT.709
Коэффициенты матрицы : BT.709

Аудио #1
Идентификатор : 7
Формат : AC-3
Формат/Информация : Audio Coding 3
Расширение режима : CM (complete main)
Параметр Endianness формата : Big
Идентификатор кодека : A_AC3
Продолжительность : 2 ч. 10 м.
Вид битрейта : Постоянный
Битрейт : 384 Кбит/сек
Каналы : 6 каналов
Расположение каналов : Front: L C R, Side: L R, LFE
Частота : 48,0 КГц
Метод сжатия : С потерями
Размер потока : 359 Мбайт (7%)
Default : Да
Forced : Нет

Аудио #2
Идентификатор : 8
Формат : AC-3
Формат/Информация : Audio Coding 3
Расширение режима : CM (complete main)
Параметр Endianness формата : Big
Идентификатор кодека : A_AC3
Продолжительность : 2 ч. 10 м.
Вид битрейта : Постоянный
Битрейт : 256 Кбит/сек
Каналы : 6 каналов
Расположение каналов : Front: L C R, Side: L R, LFE
Частота : 48,0 КГц
Метод сжатия : С потерями
Размер потока : 240 Мбайт (5%)
Default : Нет
Forced : Нет

Аудио #3
Идентификатор : 9
Формат : AC-3
Формат/Информация : Audio Coding 3
Расширение режима : CM (complete main)
Параметр Endianness формата : Big
Идентификатор кодека : A_AC3
Продолжительность : 2 ч. 10 м.
Вид битрейта : Постоянный
Битрейт : 256 Кбит/сек
Каналы : 6 каналов
Расположение каналов : Front: L C R, Side: L R, LFE
Частота : 48,0 КГц
Метод сжатия : С потерями
Размер потока : 240 Мбайт (5%)
Default : Нет
Forced : Нет

Аудио #4
Идентификатор : 10
Формат : AC-3
Формат/Информация : Audio Coding 3
Расширение режима : CM (complete main)
Параметр Endianness формата : Big
Идентификатор кодека : A_AC3
Продолжительность : 2 ч. 10 м.
Вид битрейта : Постоянный
Битрейт : 256 Кбит/сек
Каналы : 6 каналов
Расположение каналов : Front: L C R, Side: L R, LFE
Частота : 48,0 КГц
Метод сжатия : С потерями
Размер потока : 240 Мбайт (5%)
Default : Нет
Forced : Нет

Текст #1
Идентификатор : 2
Формат : UTF-8
Идентификатор кодека : S_TEXT/UTF8
Идентификатор кодека/Информация : UTF-8 Plain Text
Заголовок : Forced, iTunes
Язык : Russian
Default : Да
Forced : Нет

Текст #2
Идентификатор : 3
Формат : UTF-8
Идентификатор кодека : S_TEXT/UTF8
Идентификатор кодека/Информация : UTF-8 Plain Text
Заголовок : iTunes
Язык : Russian
Default : Нет
Forced : Нет

Текст #3
Идентификатор : 4
Формат : UTF-8
Идентификатор кодека : S_TEXT/UTF8
Идентификатор кодека/Информация : UTF-8 Plain Text
Заголовок : iTunes
Язык : Ukrainian
Default : Нет
Forced : Нет

Текст #4
Идентификатор : 5
Формат : UTF-8
Идентификатор кодека : S_TEXT/UTF8
Идентификатор кодека/Информация : UTF-8 Plain Text
Заголовок : Forced, iTunes
Язык : English
Default : Нет
Forced : Нет

Текст #5
Идентификатор : 6
Формат : UTF-8
Идентификатор кодека : S_TEXT/UTF8
Идентификатор кодека/Информация : UTF-8 Plain Text
Заголовок : iTunes
Язык : English
Default : Нет
Forced : Нет

Меню
00:00:00.000 : en:1
00:03:36.000 : en:2
00:07:43.000 : en:3
00:10:06.000 : en:4
00:14:08.000 : en:5
00:15:39.000 : en:6
00:20:51.000 : en:7
00:23:22.000 : en:8
00:27:56.000 : en:9
00:31:07.000 : en:10
00:34:20.000 : en:11
00:39:26.000 : en:12
00:45:20.000 : en:13
00:47:37.000 : en:14
00:50:43.000 : en:15
00:55:21.000 : en:16
00:58:23.000 : en:17
01:03:29.000 : en:18
01:08:52.000 : en:19
01:10:53.000 : en:20
01:16:19.000 : en:21
01:22:25.000 : en:22
01:28:00.000 : en:23
01:33:03.000 : en:24
01:36:55.000 : en:25
01:40:10.000 : en:26
01:45:18.000 : en:27
01:50:36.000 : en:28
01:55:22.000 : en:29
01:59:31.000 : en:30
02:02:19.000 : en:31
02:04:54.000 : en:32












Релиз от: Nikolai.Baranov







_________________

Легко быть оптимистом, когда судьба не валит с ног тяжелыми ударами, а лишь иногда легонько шлепает по заднице.


Вернуться к началу
 Профиль Отправить личное сообщение  
 
   Похожие торренты   Автор   Торрент   Размер 
В этой теме нет новых непрочитанных сообщений. Шпион / Spy (Пол Фиг) [Боевик, комедия, 2015] WEB-DL 720p, dub [Театральная версия | Чистый звук]

Dracon

2587 | 106

3.91 ГБ

В этой теме нет новых непрочитанных сообщений. Шпион / Spy [боевик, комедия, криминал, 2015] HDRip, Dub [Расширенная версия]

salma3

127 | 24

1.45 ГБ

В этой теме нет новых непрочитанных сообщений. Шпион / Spy (Пол Фиг) [Боевик, комедия, 2015] WEB-DL 720p, Avo [Расширенная версия]

Dracon

1565 | 155

2.52 ГБ

В этой теме нет новых непрочитанных сообщений. Шпион / Spy (Пол Фиг) [Боевик, комедия, 2015] HDRip, Dub [Расширенная версия | iTunes]

Dracon

241 | 12

1.37 ГБ

В этой теме нет новых непрочитанных сообщений. Шпион / Spy (Пол Фиг) [Боевик, комедия, 2015] HDRip, Dub [Расширенная версия | iTunes]

Dracon

303 | 4

2.05 ГБ

В этой теме нет новых непрочитанных сообщений. Шпион / Spy (Пол Фиг) [Боевик, комедия, 2015] BDRip 720p, Dub [Расширенная версия | iTunes]

Dracon

61 | 4

6.91 ГБ

В этой теме нет новых непрочитанных сообщений. Шпион / Spy (Пол Фиг) [Боевик, комедия, 2015] BDRip 1080p, Dub [Расширенная версия | iTunes]

Dracon

80 | 11

10.19 ГБ


Начать новую тему Ответить на тему  [ 1 сообщение ] 




Для Мосгорсуда, Роскомнадзора и рекламодателей:: mosgorsud-torrent[собачка]yandex.ru
cron