Торрент файл
скачать торрент магнет ссылка Добавлен: 03 сен 2015, 10:59
Размер: 10.54 ГБ
Сидеров: 67
Личеров: 9
Автор

СообщениеДобавлено: 03 сен 2015, 10:59 

Не в сети
Супермодератор
Аватара пользователя
Дата регистрации:
15 фев 2012, 16:44
Возраст: 29
Спасибо: 7328 / 2147
Сообщения: 73790
Год выпуска: 2005
Страна: Великобритания
Жанр: ужасы, приключения
Продолжительность: 01:43:20
Перевод: дублированный, профессиональный многоголосый, авторский

Режиссёр: Нил Маршалл

В ролях: Шона МакДональд, Натали Джексон Мендоза, Алекс Рейд, Саския Малдер, Мианна Баринг, Нора-Джейн Нун, Оливер Милберн, Молли Кайл, Крэйг Конуэй, Лесли Симпсон

Описание: Компания смелых очаровательных девушек привыкла проводить свой отпуск в экстремальных путешествиях. На этот раз принято решение исследовать отдалённые горные хребты. Всё идёт неплохо до тех пор, пока они не находят загадочный грот. Какие тайны он хранит? Женское любопытство одерживает верх над осторожностью, и вот подруги уже глубоко под землёй. Внезапный камнепад замуровывает выход наверх, и герои вынуждены отправиться вглубь бесконечных тёмных катакомб в поисках спасения. Вскоре они выясняют, что мрак, холод, голод, отчаянье и страх — не единственные их попутчики в этом подземном путешествии. Грот оказывается населён неизвестными кошмарными созданиями, которые не прочь познакомиться поближе. Долгожданный отпуск оборачивается леденящим душу ужасом, а загадочная пещера — склепом. Темнота и тишина, только слышно, как быстро бьётся твоё собственное сердце, охваченное первобытным страхом...



Качество: BDRip 1080p Сравнение с исходником
Формат: MKV
Видео: MPEG-4 AVC, 10.3 Mбит/с, 1920х820, 24 кадра/с
Аудио 1: русский, AC3, 384 kbps, 6 ch, 48 kHz [дублированный]
Аудио 2: русский, AC3, 448 kbps, 6 ch, 48 kHz [профессиональный многоголосый, Супербит]
Аудио 3: русский, AC3, 192 kbps, 2 ch, 48 kHz [профессиональный многоголосый]
Аудио 4: русский, DTS, 1509 kbps, 6 ch, 48 kHz [авторский, Дмитрий Есарев]
Аудио 5: английский, DTS, 1509 kbps, 6 ch, 48 kHz [оригинал]
Субтитры 1: русские
Субтитры 2: английские

Сатурн, 2007 год
Победитель (1):
Лучший фильм ужасов

Номинации (2):
Лучшая актриса (Шона МакДональд)
Лучший грим

Общее
Уникальный идентификатор : 254320721845666829300049957854764168468 (0xBF5463ADA04ADAD993636B0E72457514)
Полное имя : D:VideoСпуск.2005.BDRip.1080p.mkv
Формат : Matroska
Версия формата : Version 4 / Version 2
Размер файла : 10,5 Гбайт
Продолжительность : 1 ч. 43 м.
Общий поток : 14,6 Мбит/сек
Название фильма : BDRip -- STarankov
Дата кодирования : UTC 2015-09-03 02:23:26
Программа кодирования : mkvmerge v8.2.0 ('World of Adventure') 64bit
Библиотека кодирования : libebml v1.3.1 + libmatroska v1.4.2
DURATION : 01:43:20.768000000
NUMBER_OF_FRAMES : 581322
NUMBER_OF_BYTES : 1169620124
_STATISTICS_WRITING_APP : mkvmerge v8.2.0 ('World of Adventure') 64bit
_STATISTICS_WRITING_DATE_UTC : 2015-09-03 02:23:26
_STATISTICS_TAGS : BPS DURATION NUMBER_OF_FRAMES NUMBER_OF_BYTES

Видео
Идентификатор : 1
Формат : AVC
Формат/Информация : Advanced Video Codec
Профиль формата : High@L4.1
Параметр CABAC формата : Да
Параметр ReFrames формата : 4 кадра
Идентификатор кодека : V_MPEG4/ISO/AVC
Продолжительность : 1 ч. 43 м.
Битрейт : 10,3 Мбит/сек
Ширина : 1920 пикселей
Высота : 820 пикселей
Соотношение сторон : 2,35:1
Режим частоты кадров : Постоянный
Частота кадров : 24,000 кадра/сек
Цветовое пространство : YUV
Субдискретизация насыщенности : 4:2:0
Битовая глубина : 8 бит
Тип развёртки : Прогрессивная
Бит/(Пиксели*Кадры) : 0.272
Размер потока : 7,41 Гбайт (70%)
Библиотека кодирования : x264 core 146 r2538 121396c
Настройки программы : cabac=1 / ref=4 / deblock=1:-2:-2 / analyse=0x3:0x113 / me=umh / subme=10 / psy=1 / psy_rd=1.00:0.15 / mixed_ref=1 / me_range=32 / chroma_me=1 / trellis=2 / 8x8dct=1 / cqm=0 / deadzone=21,11 / fast_pskip=1 / chroma_qp_offset=-3 / threads=6 / lookahead_threads=1 / sliced_threads=0 / nr=0 / decimate=1 / interlaced=0 / bluray_compat=0 / constrained_intra=0 / bframes=11 / b_pyramid=2 / b_adapt=2 / b_bias=0 / direct=1 / weightb=1 / open_gop=0 / weightp=2 / keyint=230 / keyint_min=23 / scenecut=40 / intra_refresh=0 / rc_lookahead=40 / rc=crf / mbtree=0 / crf=19.2 / qcomp=0.60 / qpmin=0 / qpmax=69 / qpstep=4 / vbv_maxrate=40000 / vbv_bufsize=50000 / crf_max=0.0 / nal_hrd=none / filler=0 / ip_ratio=1.40 / pb_ratio=1.30 / aq=1:1.00
Язык : English
Default : Да
Forced : Нет
DURATION : 01:39:24.000000000
NUMBER_OF_FRAMES : 143136
NUMBER_OF_BYTES : 8251501742
_STATISTICS_WRITING_APP : mkvmerge v8.2.0 ('World of Adventure') 64bit
_STATISTICS_WRITING_DATE_UTC : 2015-09-03 02:23:26
_STATISTICS_TAGS : BPS DURATION NUMBER_OF_FRAMES NUMBER_OF_BYTES

Аудио #1
Идентификатор : 2
Формат : AC-3
Формат/Информация : Audio Coding 3
Расширение режима : CM (complete main)
Параметр Endianness формата : Big
Идентификатор кодека : A_AC3
Продолжительность : 1 ч. 43 м.
Вид битрейта : Постоянный
Битрейт : 384 Кбит/сек
Каналы : 6 каналов
Расположение каналов : Front: L C R, Side: L R, LFE
Частота : 48,0 КГц
Метод сжатия : С потерями
Размер потока : 284 Мбайт (3%)
Заголовок : DUB
Язык : Russian
Default : Да
Forced : Нет

Аудио #2
Идентификатор : 3
Формат : AC-3
Формат/Информация : Audio Coding 3
Расширение режима : CM (complete main)
Параметр Endianness формата : Big
Идентификатор кодека : A_AC3
Продолжительность : 1 ч. 43 м.
Вид битрейта : Постоянный
Битрейт : 448 Кбит/сек
Каналы : 6 каналов
Расположение каналов : Front: L C R, Side: L R, LFE
Частота : 48,0 КГц
Метод сжатия : С потерями
Размер потока : 331 Мбайт (3%)
Заголовок : MVO (Супербит)
Язык : Russian
Default : Нет
Forced : Нет

Аудио #3
Идентификатор : 4
Формат : AC-3
Формат/Информация : Audio Coding 3
Расширение режима : CM (complete main)
Параметр Endianness формата : Big
Идентификатор кодека : A_AC3
Продолжительность : 1 ч. 43 м.
Вид битрейта : Постоянный
Битрейт : 192 Кбит/сек
Каналы : 2 канала
Расположение каналов : Front: L R
Частота : 48,0 КГц
Метод сжатия : С потерями
Размер потока : 142 Мбайт (1%)
Заголовок : MVO
Язык : Russian
Default : Нет
Forced : Нет

Аудио #4
Идентификатор : 5
Формат : DTS
Формат/Информация : Digital Theater Systems
Режим : 16
Параметр Endianness формата : Big
Идентификатор кодека : A_DTS
Продолжительность : 1 ч. 43 м.
Вид битрейта : Постоянный
Битрейт : 1509 Кбит/сек
Каналы : 6 каналов
Расположение каналов : Front: L C R, Side: L R, LFE
Частота : 48,0 КГц
Битовая глубина : 16 бит
Метод сжатия : С потерями
Размер потока : 1,09 Гбайт (10%)
Заголовок : AVO (Дмитрий Есарев)
Язык : Russian
Default : Нет
Forced : Нет

Аудио #5
Идентификатор : 6
Формат : DTS
Формат/Информация : Digital Theater Systems
Режим : 16
Параметр Endianness формата : Big
Идентификатор кодека : A_DTS
Продолжительность : 1 ч. 43 м.
Вид битрейта : Постоянный
Битрейт : 1509 Кбит/сек
Каналы : 6 каналов
Расположение каналов : Front: L C R, Side: L R, LFE
Частота : 48,0 КГц
Битовая глубина : 16 бит
Метод сжатия : С потерями
Размер потока : 1,09 Гбайт (10%)
Заголовок : Original
Язык : English
Default : Нет
Forced : Нет

Текст #1
Идентификатор : 7
Формат : UTF-8
Идентификатор кодека : S_TEXT/UTF8
Идентификатор кодека/Информация : UTF-8 Plain Text
Заголовок : русский
Язык : Russian
Default : Нет
Forced : Нет

Текст #2
Идентификатор : 8
Формат : UTF-8
Идентификатор кодека : S_TEXT/UTF8
Идентификатор кодека/Информация : UTF-8 Plain Text
Заголовок : английский
Default : Нет
Forced : Нет




by msltel


_________________
Проголосуй за трекер Открытый торрент трекер - RUS-MEDIA.ORG

Проголосуй Открытый торрент трекер - RUS-MEDIA.ORG


Вернуться к началу
 Профиль Отправить личное сообщение  
 
   Похожие торренты   Автор   Торрент   Размер 
В этой теме нет новых непрочитанных сообщений. Спуск / The Descent [Ужасы, триллер, приключения, 2005] BDRemux 1080p, Dub

salma3

10 | 2

21.62 ГБ

В этой теме нет новых непрочитанных сообщений. Спуск / The Descent [ужасы, драма, 2005] BDRip 1080p, Dub+Sub

salma3

58 | 51

4.37 ГБ

В этой теме нет новых непрочитанных сообщений. Спуск / The Descent [ужасы, триллер, 2005] BDRip 720p, Dub+Mvo+Avo+Sub

salma3

70 | 13

4.21 ГБ

В этой теме нет новых непрочитанных сообщений. Спуск 2 / The Descent: Part 2 [Ужасы, триллер, приключения, 2009] BDRemux 1080p, Dub

salma3

7 | 8

20.57 ГБ

В этой теме нет новых непрочитанных сообщений. Спуск 2 / The Descent: Part 2 [Приключения, Триллер, Ужасы, 2009] BDRip 720p, Dub [iPad] [Лицензия]

salma3

19 | 7

2.1 ГБ

В этой теме нет новых непрочитанных сообщений. Спуск / The Descent [ужасы, триллер, 2005] HDRip-AVC, Dub+Dvo+Sub

salma3

100 | 24

1.45 ГБ

В этой теме нет новых непрочитанных сообщений. Последний спуск / The Last Descent [драма, 2016] DVDRip, Mvo

salma3

30 | 2

1.37 ГБ


Начать новую тему Ответить на тему  [ 1 сообщение ] 




Для Мосгорсуда, Роскомнадзора и рекламодателей:: mosgorsud-torrent[собачка]yandex.ru
cron