Торрент файл
скачать торрент магнет ссылка Добавлен: 01 сен 2015, 11:46
Размер: 4.03 ГБ
Сидеров: 109
Личеров: 5
Автор

СообщениеДобавлено: 01 сен 2015, 11:46 

Не в сети
Супермодератор
Аватара пользователя
Дата регистрации:
15 фев 2012, 16:44
Возраст: 28
Спасибо: 7290 / 2147
Сообщения: 70380
Год выхода: 1987
Жанр: фантастика, фэнтези, драма, комедия, семейный
Режиссер: Мэттью Роббинс
В ролях: Хьюм Кронин, Джессика Тэнди, Фрэнк МакРей, Элизабет Пенья, Майкл Кармине, Деннис Буцикарис, Том Элдридж, Джейн Хоффман, Джон ДиСанти, Джон Пэнкоу

О фильме: Дом, в котором живут наши герои, подлежит сносу, и горстка домочадцев — пожилая семейная пара Райли, бывший боксер Гарри, молодая пуэрториканка Мариса и художник Мэйсон — отчаянно борются за спасение милых сердцу трущоб.

Беднягам остается надеятся только на чудо, и оно случается: помощь приходит от братьев по разуму. Однажды ночью квартиру Райли посещают неожиданные гости — крохотные НЛО.



Страна: США
Студия: Amblin Entertainment, Universal Pictures
Продолжительность: 01:46:29
Перевод: Профессиональный (двухголосый, закадровый) Премьер Мультимедиа/R5 + Профессиональный (двухголосый, закадровый) СТС + Профессиональный (двухголосый, закадровый) НТВ+ + Профессиональный (двухголосый, закадровый) ОРТ + Авторский (одноголосый, закадровый) Алексей Михалёв

Файл
Формат: Matroska
Видео: 1280x692 at 23.976 fps, MPEG-4 AVC, ~4000 kbps avg
Аудио#1: Russian: 48 kHz, AC3, 2/0 (L,R) ch, ~192.00 kbps avg |Двухголосый закадровый, Премьер Мультимедиа/R5|
Аудио#2: Russian: 48 kHz, AC3, 2/0 (L,R) ch, ~192.00 kbps avg |Двухголосый закадровый, СТС|
Аудио#3: Russian: 48 kHz, AC3, 2/0 (L,R) ch, ~192.00 kbps avg |Двухголосый закадровый, НТВ+|
Аудио#4: Russian: 48 kHz, AC3, 2/0 (L,R) ch, ~192.00 kbps avg |Двухголосый закадровый, ОРТ|
Аудио#5: Russian: 48 kHz, AC3, 2/0 (L,R) ch, ~192.00 kbps avg |Авторский, А.Михалёв|
Aудио#6: English: 48 kHz, AC3, 3/2 (L,C,R,l,r) + LFE ch, ~384.00 kbps avg
Субтитры: English

В сцене, где Карлос приходит в офис мистера Лейси, они рассматривают модель будущих небоскрёбов, между которыми стоит маленькая моделька проблемного дома.
[*]Актёры Джессика Тенди и Хьюм Кронин, сыгравшие Фэй и Френка Райли на самом деле муж и жена.
ЦитатаКто-то писал:
Сохранены и подписаны оригинальные главы.
[*]Синхронизация звуковых дорожек - clom.
Общее
Уникальный идентификатор : 195521708677223268380617945847483693159 (0x93181C818F402B66BC4A90BEB8A17867)
Полное имя : Batarejki.v.komplekt.ne.vhodjat.1987.WEB-DL.720p.mkv
Формат : Matroska
Версия формата : Version 2
Размер файла : 4,03 Гбайт
Продолжительность : 1 ч. 46 м.
Общий поток : 5418 Кбит/сек
Дата кодирования : UTC 2015-07-05 12:12:43
Программа кодирования : mkvmerge v3.3.0 ('Language') built on Mar 24 2010 14:59:24
Библиотека кодирования : libebml v0.8.0 + libmatroska v0.9.0

Видео
Идентификатор : 1
Формат : AVC
Формат/Информация : Advanced Video Codec
Профиль формата : High@L3.1
Параметр CABAC формата : Нет
Параметр ReFrames формата : 2 кадра
Идентификатор кодека : V_MPEG4/ISO/AVC
Продолжительность : 1 ч. 46 м.
Битрейт : 3966 Кбит/сек
Ширина : 1280 пикселей
Высота : 692 пикселя
Соотношение сторон : 1,85:1
Режим частоты кадров : Постоянный
Частота кадров : 23,976 кадра/сек
Цветовое пространство : YUV
Субдискретизация насыщенности : 4:2:0
Битовая глубина : 8 бит
Тип развёртки : Прогрессивная
Бит/(Пиксели*Кадры) : 0.187
Размер потока : 2,95 Гбайт (73%)
Заголовок : Batteries.Not.Included.1987.720p.WEB-DL.DD5.1.H264-FGT
Язык : English
Default : Нет
Forced : Нет
Цветовой диапазон : Limited
Основные цвета : BT.709
Характеристики трансфера : BT.709
Коэффициенты матрицы : BT.709

Аудио #1
Идентификатор : 2
Формат : AC-3
Формат/Информация : Audio Coding 3
Расширение режима : CM (complete main)
Параметр Endianness формата : Big
Идентификатор кодека : A_AC3
Продолжительность : 1 ч. 46 м.
Вид битрейта : Постоянный
Битрейт : 192 Кбит/сек
Каналы : 2 канала
Расположение каналов : Front: L R
Частота : 48,0 КГц
Метод сжатия : С потерями
Задержка видео : 2 с. 200 мс.
Размер потока : 146 Мбайт (4%)
Заголовок : ПД (R5)
Язык : Russian
Default : Нет
Forced : Да

Аудио #2
Идентификатор : 3
Формат : AC-3
Формат/Информация : Audio Coding 3
Расширение режима : CM (complete main)
Параметр Endianness формата : Big
Идентификатор кодека : A_AC3
Продолжительность : 1 ч. 46 м.
Вид битрейта : Постоянный
Битрейт : 192 Кбит/сек
Каналы : 2 канала
Расположение каналов : Front: L R
Частота : 48,0 КГц
Метод сжатия : С потерями
Задержка видео : 2 с. 300 мс.
Размер потока : 146 Мбайт (4%)
Заголовок : ПД (СТС)
Язык : Russian
Default : Нет
Forced : Да

Аудио #3
Идентификатор : 4
Формат : AC-3
Формат/Информация : Audio Coding 3
Расширение режима : CM (complete main)
Параметр Endianness формата : Big
Идентификатор кодека : A_AC3
Продолжительность : 1 ч. 46 м.
Вид битрейта : Постоянный
Битрейт : 192 Кбит/сек
Каналы : 2 канала
Расположение каналов : Front: L R
Частота : 48,0 КГц
Метод сжатия : С потерями
Задержка видео : 2 с. 0 мс.
Размер потока : 146 Мбайт (4%)
Заголовок : ПД (НТВ+)
Язык : Russian
Default : Нет
Forced : Да

Аудио #4
Идентификатор : 5
Формат : AC-3
Формат/Информация : Audio Coding 3
Расширение режима : CM (complete main)
Параметр Endianness формата : Big
Идентификатор кодека : A_AC3
Продолжительность : 1 ч. 46 м.
Вид битрейта : Постоянный
Битрейт : 192 Кбит/сек
Каналы : 2 канала
Расположение каналов : Front: L R
Частота : 48,0 КГц
Метод сжатия : С потерями
Задержка видео : 2 с. 0 мс.
Размер потока : 146 Мбайт (4%)
Заголовок : ПД (ОРТ)
Язык : Russian
Default : Нет
Forced : Да

Аудио #5
Идентификатор : 6
Формат : AC-3
Формат/Информация : Audio Coding 3
Расширение режима : CM (complete main)
Параметр Endianness формата : Big
Идентификатор кодека : A_AC3
Продолжительность : 1 ч. 46 м.
Вид битрейта : Постоянный
Битрейт : 192 Кбит/сек
Каналы : 2 канала
Расположение каналов : Front: L R
Частота : 48,0 КГц
Метод сжатия : С потерями
Задержка видео : 2 с. 200 мс.
Размер потока : 146 Мбайт (4%)
Заголовок : АП (Михалев)
Язык : Russian
Default : Да
Forced : Да

Аудио #6
Идентификатор : 7
Формат : AC-3
Формат/Информация : Audio Coding 3
Расширение режима : CM (complete main)
Параметр Endianness формата : Big
Идентификатор кодека : A_AC3
Продолжительность : 1 ч. 46 м.
Вид битрейта : Постоянный
Битрейт : 384 Кбит/сек
Каналы : 6 каналов
Расположение каналов : Front: L C R, Side: L R, LFE
Частота : 48,0 КГц
Метод сжатия : С потерями
Размер потока : 292 Мбайт (7%)
Заголовок : Original
Язык : English
Default : Нет
Forced : Нет

Текст
Идентификатор : 8
Формат : UTF-8
Идентификатор кодека : S_TEXT/UTF8
Идентификатор кодека/Информация : UTF-8 Plain Text
Заголовок : SDh
Язык : English
Default : Нет
Forced : Нет

Меню
00:00:00.000 : en:1. Main Tiltles
00:03:02.000 : en:2. The Wrecking Crew
00:12:44.000 : en:3. Time to Quit
00:18:17.000 : en:4. Sunset
00:21:46.000 : en:5. Night Visitors
00:29:14.000 : en:6. The Little Guys
00:38:43.000 : en:7. Carlos' Big Shock
00:51:22.000 : en:8. The Big Night
00:57:16.000 : en:9. Back in Business
01:03:29.000 : en:10. The Miracle Cure
01:06:37.000 : en:11. Mr. Lacey
01:09:57.000 : en:12. Alive & Kicking
01:15:31.000 : en:13. The Hatchet Man
01:20:15.000 : en:14. The Lost Saucers
01:26:16.000 : en:15. Letting Go
01:27:55.000 : en:16. The Fire Bomb
01:34:57.000 : en:17. Help From Above
01:41:39.000 : en:18. End Titles



_________________
Проголосуй за трекер Открытый торрент трекер - RUS-MEDIA.ORG

Проголосуй Открытый торрент трекер - RUS-MEDIA.ORG


Вернуться к началу
 Профиль Отправить личное сообщение  
 
   Похожие торренты   Автор   Торрент   Размер 
В этой теме нет новых непрочитанных сообщений. Батарейки не прилагаются / *batteries not included [фантастика, фэнтези, драма, 1987] BDRip 720p, Dvo

salma3

61 | 14

9.66 ГБ

В этой теме нет новых непрочитанных сообщений. Батарейки не прилагаются / *batteries not included [фантастика, фэнтези, драма, 1987] BDRip 1080p, Dvo+Sub

salma3

83 | 8

11.54 ГБ

В этой теме нет новых непрочитанных сообщений. Трое мужчин и младенец / Three Men and a Baby [Комедия, Драма, Семейный, 1987] WEB-DLRip 720p, Dub

salma3

0 | 0

4.37 ГБ

В этой теме нет новых непрочитанных сообщений. Манекен / Mannequin [фэнтези, мелодрама, комедия, 1987] BDRip 720p, Dvo

salma3

34 | 29

7.24 ГБ

В этой теме нет новых непрочитанных сообщений. Изо всех сил / Over the Top [Боевик, драма, семейный, спорт, 1987] BDRip 720p, Mvo

salma3

0 | 0

11.53 ГБ

В этой теме нет новых непрочитанных сообщений. Малыши из мусорного бачка / The Garbage Pail Kids Movie [фантастика, комедия, приключения, семейный, 1987] DVDRip, Avo

salma3

42 | 10

2 ГБ

В этой теме нет новых непрочитанных сообщений. Седьмой / Си Джей 7 / Cheung Gong 7 hou / CJ7 [Фантастика, фэнтези, комедия, драма, семейный, 2008] BDRip 720р, Mvo

salma3

132 | 34

3.76 ГБ


Начать новую тему Ответить на тему  [ 1 сообщение ] 




Для Мосгорсуда, Роскомнадзора и рекламодателей:: mosgorsud-torrent[собачка]yandex.ru
cron