Торрент файл
скачать торрент магнет ссылка Добавлен: 01 сен 2015, 00:02
Размер: 3.91 ГБ
Сидеров: 184
Личеров: 27
Автор

СообщениеДобавлено: 01 сен 2015, 00:02 

Не в сети
Супермодератор
Аватара пользователя
Дата регистрации:
15 фев 2012, 16:44
Возраст: 29
Спасибо: 7377 / 2147
Сообщения: 75902
Год выпуска: 1996
Страна: Франция
Жанр: Приключения, комедия
Продолжительность: 01:35:58

Перевод: Профессиональный (многоголосый закадровый) x 3
Cубтитры: Русские, английские
Режиссер: Франсис Вебер

В ролях: Жан Рено, Патрик Брюэль, Харрисон Лоу, Патрисия Веласкес, Дэнни Трехо, Ролан Бланш, Франсуа Перро, Франсис Лемэр, Джил Бирмингем, Кристиан Буйетт

Описание: Однажды вечером в лифте фешенебельного парижского отеля «Крийон» оказались вместе три человека: индеец, приехавший из Амазонки с гуманитарным турне, его переводчик — француз, выросший среди индейцев и еще один занятный тип — бездельник и мошенник Перрен, преследуемый бандитами всех мастей за игорные долги.
Почему — то взгляд индейца Вану падает именно на него, и Перрен оказывается «избранным»… Спасаясь от преследователей, он вместе с Кампаной отправляется в леса Амазонки искать душу Вану, и с ним начинают происходить настолько невероятные события, что вся его прошлая жизнь кажется ему сущей безделицей…

Забавная и занимательная лента, в которой, впрочем, можно обнаружить частичное автозаимствование известного французского сценариста и режиссёра Франсиса Вебера из своей же популярной эксцентрико-приключенческой комедии «Приманка» (в нашем прокате — «Невезучие») с участием парадоксальной парочки Жерар Депардьё-Пьер Ришар, а также из чужого фильма схожего типа «Индеец в городе», где снимался Тьерри Лермит.
Франсис Вебер решил снять этот фильм, после того как Францию посетил вождь одного из индейский племён Раони Метуктир.
Картина пользовалась успехом в прокате, существенно окупив свой бюджет в размере 11,5 млн. франков.

Кинокомпания - Gaumont


Качество: HDTVRip 720p
Формат: MKV
Видео кодек: H264
Аудио кодек: AC3
Видео: MPEG4 Video (H264), 1280x696, 25fps, 5000 Kbps
Аудио #1: Русский: Dolby AC3, 48000 Hz, 6ch, 448 kbps - Многоголосый закадровый, ДВД-групп
Аудио #2: Русский: Dolby AC3, 48000 Hz, 2ch, 192 kbps - Многоголосый закадровый, ТВЦ
Аудио #3: Русский: Dolby AC3, 48000 Hz, 2ch, 192 kbps - Многоголосый закадровый, ТВС
Формат субтитров: Softsub (SRT)

Сэмпл

General
Unique ID : 227950108887717013827233842355180549427 (0xAB7D9813E0D71E1383F5597EE5263533)
Complete name : F:Torrent 21996.Jaguar.renta23.mkv
Format : Matroska
Format version : Version 4 / Version 2
File size : 3.91 GiB
Duration : 1h 35mn
Overall bit rate : 5 826 Kbps
Movie name : 1996 Ягуар / renta23
Encoded date : UTC 2015-08-31 11:31:10
Writing application : mkvmerge v8.1.0 ('Psychedelic Postcard') 32bit
Writing library : libebml v1.3.1 + libmatroska v1.4.2
DURATION : 01:35:07.521000000
NUMBER_OF_FRAMES : 916
NUMBER_OF_BYTES : 24876
_STATISTICS_WRITING_APP : mkvmerge v8.1.0 ('Psychedelic Postcard') 32bit
_STATISTICS_WRITING_DATE_UTC : 2015-08-31 11:31:10
_STATISTICS_TAGS : BPS DURATION NUMBER_OF_FRAMES NUMBER_OF_BYTES

Video
ID : 1
Format : AVC
Format/Info : Advanced Video Codec
Format profile : High@L4.1
Format settings, CABAC : Yes
Format settings, ReFrames : 7 frames
Codec ID : V_MPEG4/ISO/AVC
Duration : 1h 35mn
Bit rate : 5 000 Kbps
Width : 1 280 pixels
Height : 696 pixels
Display aspect ratio : 1.85:1
Frame rate mode : Constant
Frame rate : 25.000 fps
Color space : YUV
Chroma subsampling : 4:2:0
Bit depth : 8 bits
Scan type : Progressive
Bits/(Pixel*Frame) : 0.224
Stream size : 3.27 GiB (84%)
Title : 1996 Ягуар
Writing library : x264 core 146 r2538 121396c
Encoding settings : cabac=1 / ref=8 / deblock=1:-1:-1 / analyse=0x3:0x113 / me=umh / subme=11 / psy=1 / psy_rd=1.15:0.25 / mixed_ref=1 / me_range=32 / chroma_me=1 / trellis=2 / 8x8dct=1 / cqm=0 / deadzone=21,11 / fast_pskip=0 / chroma_qp_offset=-4 / threads=12 / lookahead_threads=3 / sliced_threads=0 / nr=0 / decimate=0 / interlaced=0 / bluray_compat=0 / constrained_intra=0 / bframes=16 / b_pyramid=1 / b_adapt=2 / b_bias=0 / direct=3 / weightb=1 / open_gop=0 / weightp=2 / keyint=250 / keyint_min=25 / scenecut=40 / intra_refresh=0 / rc_lookahead=50 / rc=2pass / mbtree=1 / bitrate=5000 / ratetol=1.0 / qcomp=0.60 / qpmin=0 / qpmax=69 / qpstep=4 / cplxblur=20.0 / qblur=0.5 / vbv_maxrate=14000 / vbv_bufsize=14000 / nal_hrd=none / filler=0 / ip_ratio=1.40 / aq=1:1.00
Language : French
Default : Yes
Forced : No

Audio #1
ID : 2
Format : AC-3
Format/Info : Audio Coding 3
Mode extension : CM (complete main)
Format settings, Endianness : Big
Codec ID : A_AC3
Duration : 1h 35mn
Bit rate mode : Constant
Bit rate : 448 Kbps
Channel(s) : 6 channels
Channel positions : Front: L C R, Side: L R, LFE
Sampling rate : 48.0 KHz
Bit depth : 16 bits
Compression mode : Lossy
Stream size : 308 MiB (8%)
Title : Многоголосый закадровый, ДВД-групп
Language : Russian
Default : Yes
Forced : No

Audio #2
ID : 3
Format : AC-3
Format/Info : Audio Coding 3
Mode extension : CM (complete main)
Format settings, Endianness : Big
Codec ID : A_AC3
Duration : 1h 35mn
Bit rate mode : Constant
Bit rate : 192 Kbps
Channel(s) : 2 channels
Channel positions : Front: L R
Sampling rate : 48.0 KHz
Bit depth : 16 bits
Compression mode : Lossy
Stream size : 132 MiB (3%)
Title : Многоголосый закадровый, ТВЦ
Language : Russian
Default : No
Forced : No

Audio #3
ID : 4
Format : AC-3
Format/Info : Audio Coding 3
Mode extension : CM (complete main)
Format settings, Endianness : Big
Codec ID : A_AC3
Duration : 1h 35mn
Bit rate mode : Constant
Bit rate : 192 Kbps
Channel(s) : 2 channels
Channel positions : Front: L R
Sampling rate : 48.0 KHz
Bit depth : 16 bits
Compression mode : Lossy
Stream size : 132 MiB (3%)
Title : Многоголосый закадровый, ТВС
Language : Russian
Default : No
Forced : No

Text #1
ID : 5
Format : UTF-8
Codec ID : S_TEXT/UTF8
Codec ID/Info : UTF-8 Plain Text
Language : Russian
Default : No
Forced : No

Text #2
ID : 6
Format : UTF-8
Codec ID : S_TEXT/UTF8
Codec ID/Info : UTF-8 Plain Text
Language : English
Default : No
Forced : No




_________________
Проголосуй за трекер Открытый торрент трекер - RUS-MEDIA.ORG

Проголосуй Открытый торрент трекер - RUS-MEDIA.ORG


Вернуться к началу
 Профиль Отправить личное сообщение  
 
   Похожие торренты   Автор   Торрент   Размер 
В этой теме нет новых непрочитанных сообщений. Парижские тайны / Les mystеres de Paris [Боевик, Приключения, Криминал, 1962] BDRip 720p, Dub+3Mvo

salma3

0 | 0

5.15 ГБ

В этой теме нет новых непрочитанных сообщений. Вне поля зрения / Out of Sight [триллер, мелодрама, комедия, 1998] BDRip 720p, 3MVO+2AVO

salma3

2 | 3

8.6 ГБ

В этой теме нет новых непрочитанных сообщений. Nat Geo Wild: Ягуары против крокодилов / Jaguar vs. Croc (2017) HDTVRip-AVC | P1

salma3

0 | 0

1.27 ГБ

В этой теме нет новых непрочитанных сообщений. Nat Geo Wild: Ягуары против крокодилов / Jaguar vs. Croc (2017) HDTVRip | P1

salma3

0 | 0

620.11 МБ

В этой теме нет новых непрочитанных сообщений. Появляется Данстон / Dunston Checks In [комедия, приключения, семейный, 1996] WEB-DL 720p, Mvo

salma3

16 | 8

3.34 ГБ

В этой теме нет новых непрочитанных сообщений. Больше чем жизнь / Larger Than Life [Комедия, приключения, семейный, 1996] WEB-DLRip 720p, Mvo

salma3

0 | 0

4.61 ГБ

В этой теме нет новых непрочитанных сообщений. Аладдин и король разбойников / Aladdin and the King of Thieves [мультфильм, комедия, приключения, 1996] BDRip 720p, Dub

salma3

0 | 164

2.58 ГБ


Начать новую тему Ответить на тему  [ 1 сообщение ] 




Для Мосгорсуда, Роскомнадзора и рекламодателей:: mosgorsud-torrent[собачка]yandex.ru
cron