Торрент файл
скачать торрент магнет ссылка Добавлен: 23 авг 2015, 18:47
Размер: 10.55 ГБ
Сидеров: 0
Личеров: 0
Статус: (salma3)
Автор

СообщениеДобавлено: 23 авг 2015, 18:47 

Не в сети
Дата регистрации:
12 май 2015, 21:12
Спасибо: 1 / 26
Сообщения: 6
Страна: США, Франция
Жанр: драма, экранизация
Год выпуска: 2014
Продолжительность: 01:41:15

Перевод: Полное дублирование
Перевод 2: Многоголосый закадровый
Cубтитры: русские, английские
Оригинальная аудиодорожка: английский

Режиссер: Ричард Глацер, Уош Вестмоленд / Richard Glatzer, Wash Westmoreland

В ролях: Джулианна Мур (Julianne Moore), Алек Болдуин (Alec Baldwin), Кристен Стюарт (Kristen Stewart), Кейт Босворт (Kate Bosworth) и др.

Описание: Элис Хаулэнд - профессор Колумбийского университета США. В свои пятьдесят лет она достигла всего, о чём можно мечтать: у неё блестящая карьера, любящий муж и трое детей. Но всё меняется, когда однажды Элис начинает забывать слова...

Награды: Премии "Оскар" и "Золотой глобус".

IMDb: 7,5 | КиноПоиск: 7,6

Доп. информация: Русский дубляж представляет Андрей С. Иванов

Сэмпл: https://yadi.sk/i/BN3Wy8TiicD4i

Качество видео: BDRip-AVC 1080p
Формат видео: MKV

Видео: MPEG4 Video (H264) 1920x1038 23.98fps
Аудио: Русский дубляж, AC-3, 6 каналов, 384 Кбит/сек, 48,0 КГц
Аудио 2: Русский многоголосый, AC-3, 6 каналов, 640 Кбит/сек, 48,0 КГц
Аудио 3: Английский, AC-3, 6 каналов, 448 Кбит/сек, 48,0 КГц
General
Complete name : H:\Still.Alice.2014.BDRip.1080.Rus-dub.ASIvanov.mkv
Format : Matroska
File size : 10.5 GiB
Duration : 1h 41mn
Overall bit rate : 14.9 Mbps
Movie name : Все еще Элис. (Tonik)
Encoded date : UTC 2015-08-23 12:19:15
Writing application : mkvmerge v7.3.0 ('Nouages') 32bit built on Oct 22 2014 18:44:01
Writing library : libebml v1.3.0 + libmatroska v1.4.1

Video
ID : 1
Format : AVC
Format/Info : Advanced Video Codec
Format profile : High@L4.1
Format settings, CABAC : Yes
Format settings, ReFrames : 4 frames
Codec ID : V_MPEG4/ISO/AVC
Duration : 1h 41mn
Bit rate : 13.1 Mbps
Width : 1 920 pixels
Height : 1 038 pixels
Display aspect ratio : 1.850
Frame rate : 23.976 fps
Color space : YUV
Chroma subsampling : 4:2:0
Bit depth : 8 bits
Scan type : Progressive
Bits/(Pixel*Frame) : 0.275
Stream size : 9.29 GiB (88%)
Writing library : x264 core 146 r2538 121396c
Encoding settings : cabac=1 / ref=4 / deblock=1:-3:-3 / analyse=0x3:0x113 / me=umh / subme=11 / psy=1 / psy_rd=1.00:0.00 / mixed_ref=1 / me_range=24 / chroma_me=1 / trellis=2 / 8x8dct=1 / cqm=0 / deadzone=21,11 / fast_pskip=0 / chroma_qp_offset=-2 / threads=12 / lookahead_threads=2 / sliced_threads=0 / nr=0 / decimate=1 / interlaced=0 / bluray_compat=0 / constrained_intra=0 / bframes=8 / b_pyramid=2 / b_adapt=2 / b_bias=0 / direct=1 / weightb=1 / open_gop=0 / weightp=2 / keyint=240 / keyint_min=23 / scenecut=40 / intra_refresh=0 / rc_lookahead=40 / rc=crf / mbtree=0 / crf=17.5 / qcomp=0.65 / qpmin=0 / qpmax=69 / qpstep=4 / vbv_maxrate=62500 / vbv_bufsize=78125 / crf_max=0.0 / nal_hrd=none / filler=0 / ip_ratio=1.30 / pb_ratio=1.20 / aq=1:0.70
Language : English

Audio #1
ID : 2
Format : AC-3
Format/Info : Audio Coding 3
Mode extension : CM (complete main)
Codec ID : A_AC3
Duration : 1h 41mn
Bit rate mode : Constant
Bit rate : 384 Kbps
Channel(s) : 6 channels
Channel positions : Front: L C R, Side: L R, LFE
Sampling rate : 48.0 KHz
Bit depth : 16 bits
Stream size : 278 MiB (3%)
Title : Русский дубляж (Baibako Андрей С. Иванов)
Language : Russian

Audio #2
ID : 3
Format : AC-3
Format/Info : Audio Coding 3
Mode extension : CM (complete main)
Codec ID : A_AC3
Duration : 1h 41mn
Bit rate mode : Constant
Bit rate : 640 Kbps
Channel(s) : 6 channels
Channel positions : Front: L C R, Side: L R, LFE
Sampling rate : 48.0 KHz
Bit depth : 16 bits
Stream size : 463 MiB (4%)
Title : Русский многоголосый (R5)
Language : Russian

Audio #3
ID : 4
Format : AC-3
Format/Info : Audio Coding 3
Mode extension : CM (complete main)
Codec ID : A_AC3
Duration : 1h 41mn
Bit rate mode : Constant
Bit rate : 448 Kbps
Channel(s) : 6 channels
Channel positions : Front: L C R, Side: L R, LFE
Sampling rate : 48.0 KHz
Bit depth : 16 bits
Stream size : 324 MiB (3%)
Title : Английский
Language : English

Text #1
ID : 5
Format : UTF-8
Codec ID : S_TEXT/UTF8
Codec ID/Info : UTF-8 Plain Text
Language : Russian

Text #2
ID : 6
Format : UTF-8
Codec ID : S_TEXT/UTF8
Codec ID/Info : UTF-8 Plain Text
Language : English

Menu
00:00:00.000 : en:00:00:00.000
00:04:40.697 : en:00:04:40.697
00:11:03.246 : en:00:11:03.246
00:15:37.895 : en:00:15:37.895
00:21:34.668 : en:00:21:34.668
00:28:51.063 : en:00:28:51.063
00:36:54.546 : en:00:36:54.546
00:43:54.841 : en:00:43:54.841
00:49:39.518 : en:00:49:39.518
00:58:20.247 : en:00:58:20.247
01:05:08.863 : en:01:05:08.863
01:11:36.000 : en:01:11:36.000
01:16:38.886 : en:01:16:38.886
01:20:02.172 : en:01:20:02.172
01:27:08.849 : en:01:27:08.849
01:30:08.945 : en:01:30:08.945

















Вернуться к началу
 Профиль Отправить личное сообщение  
 
   Похожие торренты   Автор   Торрент   Размер 
В этой теме нет новых непрочитанных сообщений. Всё ещё Элис / Still Alice (Ричард Глацер, Уош Вестмолэнд) [драма, 2014] BDRip-AVC 720p, Dub+MVO

melua3

2 | 0

2.46 ГБ

В этой теме нет новых непрочитанных сообщений. Исчезновение Элис Крид / The Disappearance of Alice Creed [Триллер, драма, криминал, 2009] BDRip-AVC, Dub

salma3

53 | 7

745.53 МБ

В этой теме нет новых непрочитанных сообщений. Боб и Кэрол, Тед и Элис / Bob & Carol & Ted & Alice [драма, мелодрама, комедия, 1969] HDRip, Mvo

salma3

0 | 0

1.4 ГБ

В этой теме нет новых непрочитанных сообщений. Фрэнки и Элис / Frankie & Alice (2010) WEB-DL 720p, Avo

salma3

0 | 0

2.66 ГБ

В этой теме нет новых непрочитанных сообщений. Озеро Элис / Lake Alice [ужасы, 2017] DVDRip, Avo

salma3

1770 | 276

1.34 ГБ

В этой теме нет новых непрочитанных сообщений. В гостях у Элис / Home Again [Драма, мелодрама, комедия, 2017] BDRip 1080p, Dub [iTunes]

salma3

57 | 12

10.03 ГБ

В этой теме нет новых непрочитанных сообщений. Танцующий в пустыне / Desert Dancer (Ричард Рэймонд) [Драма, биография, 2014] BDRip 720p, dvo+sub

Dracon

166 | 35

5.13 ГБ


Начать новую тему Ответить на тему  [ 1 сообщение ] 




Для Мосгорсуда, Роскомнадзора и рекламодателей:: mosgorsud-torrent[собачка]yandex.ru
cron