Торрент файл
скачать торрент магнет ссылка Добавлен: 19 авг 2015, 20:48
Размер: 5.78 ГБ
Сидеров: 266
Личеров: 11
Автор

СообщениеДобавлено: 19 авг 2015, 20:48 

Не в сети
Зам. Админа
Аватара пользователя
Дата регистрации:
02 дек 2010, 12:39
Спасибо: 12656 / 214
Сообщения: 28010
Год выпуска: 2014
Страна: Великобритания
Студия: BBC Films
Жанр: драма, мелодрама, комедия
Продолжительность: 01:52:57

Перевод: Профессиональный (дублированный) iTunes
Cубтитры: Rus, Eng
Оригинальная аудиодорожка: английский

Режиссер: Алан Рикман / Alan Rickman

В ролях: Кейт Уинслет, Маттиас Шонартс, Томас Аллам, Алан Рикман, Хоуп Хэнкок, Изабелла Стейнбарт, Хэл Хеветсон, Каролина Валдес, Элинор Монтгомери, Дэниэл Уэбб

Описание: Действие сюжета разворачивается в 17 веке во Франции, когда государством правил король Людовик XIV. Талантливой девушке, работающей садовником-декоратором, предстоит усовершенствовать легендарные сады Версальского дворца, что сильно приблизит ее к королю.



Тип релиза: BDRip 720p
Контейнер: MKV
Видео: MPEG-4 AVC, 5283 Кбит/с, 1280x534, 23,976 fps
Аудио: Rus, AC3, 384 kb/s (6 ch), 48 kHz
Аудио 2: Eng, DTS, 1510 kb/s (6 ch), 48 kHz
Формат субтитров: softsub (SRT)
Format : Matroska
Format version : Version 4 / Version 2
File size : 5.78 GiB
Duration : 1h 52mn
Overall bit rate : 7 322 Kbps
Movie name : Версальский роман. (Tonik)
Encoded date : UTC 2015-08-19 12:44:03
Writing application : mkvmerge v7.1.0 ('Good Love') 64bit built on Jul 27 2014 13:06:55
Writing library : libebml v1.3.0 + libmatroska v1.4.1
_STATISTICS_WRITING_APP : mkvmerge v7.1.0 ('Good Love') 64bit built on Jul 27 2014 13:06:55
_STATISTICS_WRITING_DATE_UTC : 2015-08-19 12:44:03
_STATISTICS_TAGS : BPS DURATION NUMBER_OF_FRAMES NUMBER_OF_BYTES
DURATION : 01:52:57.760000000
NUMBER_OF_FRAMES : 211805
NUMBER_OF_BYTES : 325332480

Video
ID : 1
Format : AVC
Format/Info : Advanced Video Codec
Format profile : High@L4.1
Format settings, CABAC : Yes
Format settings, ReFrames : 12 frames
Codec ID : V_MPEG4/ISO/AVC
Duration : 1h 52mn
Bit rate : 5 283 Kbps
Width : 1 280 pixels
Height : 534 pixels
Display aspect ratio : 2.40:1
Frame rate mode : Constant
Frame rate : 23.976 fps
Color space : YUV
Chroma subsampling : 4:2:0
Bit depth : 8 bits
Scan type : Progressive
Bits/(Pixel*Frame) : 0.322
Stream size : 4.17 GiB (72%)
Writing library : x264 core 142 r2431+42 c69a006 tMod [8-bit@4:2:0 X86_64]
Encoding settings : cabac=1 / ref=12 / deblock=1:-3:-3 / analyse=0x3:0x113 / me=umh / subme=10 / psy=1 / fade_compensate=0.00 / psy_rd=1.00:0.00 / mixed_ref=1 / me_range=32 / chroma_me=1 / trellis=2 / 8x8dct=1 / cqm=0 / deadzone=21,11 / fast_pskip=0 / chroma_qp_offset=-4 / threads=12 / lookahead_threads=2 / sliced_threads=0 / nr=0 / decimate=0 / interlaced=0 / bluray_compat=0 / constrained_intra=0 / fgo=0 / bframes=9 / b_pyramid=2 / b_adapt=2 / b_bias=0 / direct=3 / weightb=1 / open_gop=0 / weightp=2 / keyint=250 / keyint_min=23 / scenecut=40 / intra_refresh=0 / rc_lookahead=60 / rc=crf / mbtree=0 / crf=16.6000 / qcomp=0.75 / qpmin=0:0:0 / qpmax=69:69:69 / qpstep=4 / vbv_maxrate=62500 / vbv_bufsize=78125 / crf_max=0.0 / nal_hrd=none / filler=0 / ip_ratio=1.30 / pb_ratio=1.30 / aq=4:0.80 / aq-sensitivity=10.00 / aq-factor=1.00:1.00:1.00 / aq2=0 / aq3=0
Language : English
Default : Yes
Forced : No
DURATION : 01:52:57.771000000
NUMBER_OF_FRAMES : 162504
NUMBER_OF_BYTES : 4597235869
_STATISTICS_WRITING_APP : mkvmerge v7.1.0 ('Good Love') 64bit built on Jul 27 2014 13:06:55
_STATISTICS_WRITING_DATE_UTC : 2015-08-19 12:44:03
_STATISTICS_TAGS : BPS DURATION NUMBER_OF_FRAMES NUMBER_OF_BYTES

Audio #1
ID : 2
Format : AC-3
Format/Info : Audio Coding 3
Mode extension : CM (complete main)
Format settings, Endianness : Big
Codec ID : A_AC3
Duration : 1h 52mn
Bit rate mode : Constant
Bit rate : 384 Kbps
Channel(s) : 6 channels
Channel positions : Front: L C R, Side: L R, LFE
Sampling rate : 48.0 KHz
Bit depth : 16 bits
Compression mode : Lossy
Stream size : 310 MiB (5%)
Language : Russian
Default : Yes
Forced : No

Audio #2
ID : 3
Format : DTS
Format/Info : Digital Theater Systems
Mode : 16
Format settings, Endianness : Big
Codec ID : A_DTS
Duration : 1h 52mn
Bit rate mode : Constant
Bit rate : 1 509 Kbps
Channel(s) : 6 channels
Channel positions : Front: L C R, Side: L R, LFE
Sampling rate : 48.0 KHz
Bit depth : 24 bits
Compression mode : Lossy
Stream size : 1.19 GiB (21%)
Language : English
Default : No
Forced : No

Text #1
ID : 4
Format : UTF-8
Codec ID : S_TEXT/UTF8
Codec ID/Info : UTF-8 Plain Text
Language : Russian
Default : No
Forced : No

Text #2
ID : 5
Format : UTF-8
Codec ID : S_TEXT/UTF8
Codec ID/Info : UTF-8 Plain Text
Language : English
Default : No
Forced : No

Menu
00:00:00.000 : en:00:00:00.000
00:06:19.337 : en:00:06:19.337
00:12:47.600 : en:00:12:47.600
00:20:45.286 : en:00:20:45.286
00:24:40.437 : en:00:24:40.437
00:29:56.044 : en:00:29:56.044
00:34:50.255 : en:00:34:50.255
00:39:58.605 : en:00:39:58.605
00:43:50.586 : en:00:43:50.586
00:49:51.780 : en:00:49:51.780
00:54:49.828 : en:00:54:49.828
01:03:05.573 : en:01:03:05.573
01:10:09.288 : en:01:10:09.288
01:16:37.551 : en:01:16:37.551
01:19:35.604 : en:01:19:35.604
01:23:32.633 : en:01:23:32.633
01:28:32.849 : en:01:28:32.849
01:35:11.623 : en:01:35:11.623
01:41:32.336 : en:01:41:32.336
01:47:11.884 : en:01:47:11.884





Вернуться к началу
 Профиль  
 
   Похожие торренты   Автор   Торрент   Размер 
В этой теме нет новых непрочитанных сообщений. Без границ (Карен Оганесян, Резо Гигинеишвили, Роман Прыгунов) [комедия, мелодрама, 2015] WEB-DL 720p [iTunes]

Dracon

7496 | 1050

2.93 ГБ

В этой теме нет новых непрочитанных сообщений. Сердце вдребезги / Playing It Cool (Джастин Рирдон) [мелодрама, комедия, 2014] BDRip 720p, Mvo [iTunes]

Dracon

1215 | 33

4.99 ГБ

В этой теме нет новых непрочитанных сообщений. Роман Израэл, Esq. / Roman J. Israel, Esq. [Драма, криминал, 2017] BDRip 720p, Mvo [iTunes]

salma3

0 | 0

4.69 ГБ

В этой теме нет новых непрочитанных сообщений. Роман Израэл, Esq. / Roman J. Israel, Esq. [Драма, криминал, 2017] BDRip 720p, Mvo [iTunes]

salma3

0 | 0

6.78 ГБ

В этой теме нет новых непрочитанных сообщений. Тронутые / The Road Within [драма, комедия, 2014] BDRip 720p, Dub [iTunes]

salma3

2 | 1

4.64 ГБ

В этой теме нет новых непрочитанных сообщений. Гордость / Pride (Мэттью Уорчас) [Драма, Комедия, 2014] BDRip 720p, Mvo [iTunes]

Dracon

152 | 6

6.47 ГБ

В этой теме нет новых непрочитанных сообщений. Любовники / The Lovers [Комедия, драма, мелодрама, 2017] BDRip 720p, Mvo [iTunes]

salma3

7 | 11

4.63 ГБ


Начать новую тему Ответить на тему  [ 1 сообщение ] 




Для Мосгорсуда, Роскомнадзора и рекламодателей:: mosgorsud-torrent[собачка]yandex.ru
cron