Торрент файл
скачать торрент магнет ссылка Добавлен: 19 авг 2015, 20:42
Размер: 12.13 ГБ
Сидеров: 253
Личеров: 42
Автор

СообщениеДобавлено: 19 авг 2015, 20:42 

Не в сети
Зам. Админа
Аватара пользователя
Дата регистрации:
02 дек 2010, 12:39
Спасибо: 12656 / 214
Сообщения: 28010
Год выпуска: 2014
Страна: Великобритания
Студия: BBC Films
Жанр: драма, мелодрама, комедия
Продолжительность: 01:52:57

Перевод: Профессиональный (дублированный) iTunes
Cубтитры: Rus, Eng
Оригинальная аудиодорожка: английский

Режиссер: Алан Рикман / Alan Rickman

В ролях: Кейт Уинслет, Маттиас Шонартс, Томас Аллам, Алан Рикман, Хоуп Хэнкок, Изабелла Стейнбарт, Хэл Хеветсон, Каролина Валдес, Элинор Монтгомери, Дэниэл Уэбб

Описание: Действие сюжета разворачивается в 17 веке во Франции, когда государством правил король Людовик XIV. Талантливой девушке, работающей садовником-декоратором, предстоит усовершенствовать легендарные сады Версальского дворца, что сильно приблизит ее к королю.



Тип релиза: BDRip 1080p
Контейнер: MKV
Видео: MPEG-4 AVC, 13.5 Mбит/с, 1920x802, 23,976 fps
Аудио: Rus, AC3, 384 kb/s (6 ch), 48 kHz
Аудио 2: Eng, DTS, 1510 kb/s (6 ch), 48 kHz
Формат субтитров: softsub (SRT)
Format : Matroska
Format version : Version 4 / Version 2
File size : 12.1 GiB
Duration : 1h 52mn
Overall bit rate : 15.4 Mbps
Movie name : Версальский роман. (Tonik)
Encoded date : UTC 2015-08-19 14:03:06
Writing application : mkvmerge v7.1.0 ('Good Love') 64bit built on Jul 27 2014 13:06:55
Writing library : libebml v1.3.0 + libmatroska v1.4.1
_STATISTICS_WRITING_APP : mkvmerge v7.1.0 ('Good Love') 64bit built on Jul 27 2014 13:06:55
_STATISTICS_WRITING_DATE_UTC : 2015-08-19 14:03:06
_STATISTICS_TAGS : BPS DURATION NUMBER_OF_FRAMES NUMBER_OF_BYTES
DURATION : 01:44:32.516000000
NUMBER_OF_FRAMES : 1192
NUMBER_OF_BYTES : 35395

Video
ID : 1
Format : AVC
Format/Info : Advanced Video Codec
Format profile : High@L4.1
Format settings, CABAC : Yes
Format settings, ReFrames : 5 frames
Codec ID : V_MPEG4/ISO/AVC
Duration : 1h 52mn
Bit rate : 13.5 Mbps
Width : 1 920 pixels
Height : 802 pixels
Display aspect ratio : 2.40:1
Frame rate mode : Constant
Frame rate : 23.976 fps
Color space : YUV
Chroma subsampling : 4:2:0
Bit depth : 8 bits
Scan type : Progressive
Bits/(Pixel*Frame) : 0.366
Stream size : 10.4 GiB (86%)
Writing library : x264 core 142 r2479 dd79a61
Encoding settings : cabac=1 / ref=5 / deblock=1:-3:-3 / analyse=0x3:0x133 / me=umh / subme=11 / psy=1 / psy_rd=1.05:0.10 / mixed_ref=1 / me_range=64 / chroma_me=1 / trellis=2 / 8x8dct=1 / cqm=0 / deadzone=21,11 / fast_pskip=0 / chroma_qp_offset=-3 / threads=12 / lookahead_threads=3 / sliced_threads=0 / nr=0 / decimate=0 / interlaced=0 / bluray_compat=0 / constrained_intra=0 / bframes=10 / b_pyramid=2 / b_adapt=2 / b_bias=0 / direct=3 / weightb=1 / open_gop=0 / weightp=2 / keyint=250 / keyint_min=23 / scenecut=40 / intra_refresh=0 / rc_lookahead=80 / rc=2pass / mbtree=1 / bitrate=13500 / ratetol=1.0 / qcomp=0.75 / qpmin=0 / qpmax=69 / qpstep=4 / cplxblur=20.0 / qblur=0.5 / vbv_maxrate=38000 / vbv_bufsize=30000 / nal_hrd=none / filler=0 / ip_ratio=1.40 / aq=1:0.75
Language : English
Default : Yes
Forced : No
DURATION : 01:52:57.771000000
NUMBER_OF_FRAMES : 162504
NUMBER_OF_BYTES : 11413060024
_STATISTICS_WRITING_APP : mkvmerge v7.1.0 ('Good Love') 64bit built on Jul 27 2014 13:06:55
_STATISTICS_WRITING_DATE_UTC : 2015-08-19 14:03:06
_STATISTICS_TAGS : BPS DURATION NUMBER_OF_FRAMES NUMBER_OF_BYTES

Audio #1
ID : 2
Format : AC-3
Format/Info : Audio Coding 3
Mode extension : CM (complete main)
Format settings, Endianness : Big
Codec ID : A_AC3
Duration : 1h 52mn
Bit rate mode : Constant
Bit rate : 384 Kbps
Channel(s) : 6 channels
Channel positions : Front: L C R, Side: L R, LFE
Sampling rate : 48.0 KHz
Bit depth : 16 bits
Compression mode : Lossy
Stream size : 310 MiB (2%)
Language : Russian
Default : Yes
Forced : No

Audio #2
ID : 3
Format : DTS
Format/Info : Digital Theater Systems
Mode : 16
Format settings, Endianness : Big
Codec ID : A_DTS
Duration : 1h 52mn
Bit rate mode : Constant
Bit rate : 1 509 Kbps
Channel(s) : 6 channels
Channel positions : Front: L C R, Side: L R, LFE
Sampling rate : 48.0 KHz
Bit depth : 24 bits
Compression mode : Lossy
Stream size : 1.19 GiB (10%)
Language : English
Default : No
Forced : No

Text #1
ID : 4
Format : UTF-8
Codec ID : S_TEXT/UTF8
Codec ID/Info : UTF-8 Plain Text
Language : Russian
Default : No
Forced : No

Text #2
ID : 5
Format : UTF-8
Codec ID : S_TEXT/UTF8
Codec ID/Info : UTF-8 Plain Text
Language : English
Default : No
Forced : No

Menu
00:00:00.000 : en:00:00:00.000
00:06:19.337 : en:00:06:19.337
00:12:47.600 : en:00:12:47.600
00:20:45.286 : en:00:20:45.286
00:24:40.437 : en:00:24:40.437
00:29:56.044 : en:00:29:56.044
00:34:50.255 : en:00:34:50.255
00:39:58.605 : en:00:39:58.605
00:43:50.586 : en:00:43:50.586
00:49:51.780 : en:00:49:51.780
00:54:49.828 : en:00:54:49.828
01:03:05.573 : en:01:03:05.573
01:10:09.288 : en:01:10:09.288
01:16:37.551 : en:01:16:37.551
01:19:35.604 : en:01:19:35.604
01:23:32.633 : en:01:23:32.633
01:28:32.849 : en:01:28:32.849
01:35:11.623 : en:01:35:11.623
01:41:32.336 : en:01:41:32.336
01:47:11.884 : en:01:47:11.884





Вернуться к началу
 Профиль  
 
   Похожие торренты   Автор   Торрент   Размер 
В этой теме нет новых непрочитанных сообщений. Версальский роман / A Little Chaos (Алан Рикман) [драма, мелодрама, комедия, 2014] BDRip 720p, Mvo+Sub [iTunes]

Dracon

266 | 11

5.78 ГБ

В этой теме нет новых непрочитанных сообщений. Без границ (Карен Оганесян, Резо Гигинеишвили, Роман Прыгунов) [комедия, мелодрама, 2015] WEB-DL 1080p [iTunes]

Dracon

12412 | 1873

3.23 ГБ

В этой теме нет новых непрочитанных сообщений. Роман Израэл, Esq. / Roman J. Israel, Esq. [Драма, криминал, 2017] BDRip 1080p, Mvo [iTunes]

salma3

0 | 0

11.05 ГБ

В этой теме нет новых непрочитанных сообщений. Роман Израэл, Esq. / Roman J. Israel, Esq. [Драма, криминал, 2017] BDRip 1080p, Mvo [iTunes]

salma3

2 | 3

12.57 ГБ

В этой теме нет новых непрочитанных сообщений. ​С 5 до 7. Время любовников / 5 to 7 [Драма, мелодрама, комедия, 2014] BDRemux 1080p, Dub [iTunes]

salma3

0 | 76

27.13 ГБ

В этой теме нет новых непрочитанных сообщений. Гордость / Pride (Мэттью Уорчас) [Драма, Комедия, 2014] BDRip 1080p, Mvo [iTunes]

Dracon

96 | 8

11.32 ГБ

В этой теме нет новых непрочитанных сообщений. Дикие истории / Relatos salvajes [триллер, драма, комедия, 2014] BDRip 1080p, Dub [Itunes]

salma3

7 | 3

10.34 ГБ


Начать новую тему Ответить на тему  [ 1 сообщение ] 




Для Мосгорсуда, Роскомнадзора и рекламодателей:: mosgorsud-torrent[собачка]yandex.ru
cron