Торрент файл
скачать торрент магнет ссылка Добавлен: 17 авг 2015, 21:31
Размер: 3.46 ГБ
Сидеров: 5
Личеров: 0
Автор

СообщениеДобавлено: 17 авг 2015, 21:31 

Не в сети
Зам. Админа
Аватара пользователя
Дата регистрации:
02 дек 2010, 12:39
Спасибо: 12656 / 214
Сообщения: 28010
Год выхода: 2014
Жанр: Драма,Мелодрама,Комедия
Режиссер: Алан Рикман
В ролях: Томас Аллам, Алан Рикман, Хоуп Хэнкок, Изабелла Стейнбарт, Хэл Хеветсон, Каролина Валдес, Элинор Монтгомери, Маттиас Шонартс, Дэниэл Уэбб, Кейт Уинслет

О фильме:
Действие сюжета разворачивается в 17 веке во Франции, когда государством правил король Людовик XIV. Талантливой девушке, работающей садовником-декоратором, предстоит усовершенствовать легендарные сады Версальского дворца, что сильно приблизит ее к королю.


Качество: WEB-DL[720p]
Видео: MPEG4/ISO/AVC, 1280@960x720, 25,000 fps, 3956 Кбит/сек
Аудио: АС3, 48 kHz, 6 ch, 384 kbps avg
Продолжительность: 01:52:01
Перевод: Профессиональный (многоголосный) [iTunes]
Общее
Уникальный идентификатор : 250714494205752758599041010530356360563 (0xBC9DDAED9E6D1316BEBABD743EACF573)
Полное имя : D:FilmsТОРРЕНТЫBePCaLCK1j.P0maH.2014.P.WEB-DL.720p.mkv
Формат : Matroska
Версия формата : Version 4 / Version 2
Размер файла : 3,46 Гбайт
Продолжительность : 1 ч. 52 м.
Общий поток : 4428 Кбит/сек
Дата кодирования : UTC 2015-08-17 08:55:38
Программа кодирования : mkvmerge v6.9.1 ('Blue Panther') 64bit built on Apr 18 2014 18:23:38
Библиотека кодирования : libebml v1.3.0 + libmatroska v1.4.1

Видео
Идентификатор : 1
Формат : AVC
Формат/Информация : Advanced Video Codec
Профиль формата : Main@L3.1
Параметр CABAC формата : Нет
Параметр ReFrames формата : 2 кадра
Идентификатор кодека : V_MPEG4/ISO/AVC
Продолжительность : 1 ч. 52 м.
Битрейт : 3956 Кбит/сек
Ширина : 960 пикселей
Высота : 720 пикселей
Соотношение сторон : 16:9
Режим частоты кадров : Постоянный
Частота кадров : 25,000 кадров/сек
Цветовое пространство : YUV
Субдискретизация насыщенности : 4:2:0
Битовая глубина : 8 бит
Тип развёртки : Прогрессивная
Бит/(Пиксели*Кадры) : 0.229
Размер потока : 3,10 Гбайт (89%)
Язык : English
Default : Да
Forced : Нет
Основные цвета : BT.709
Характеристики трансфера : BT.709
Коэффициенты матрицы : BT.709
colour_range : Limited

Аудио
Идентификатор : 2
Формат : AC-3
Формат/Информация : Audio Coding 3
Расширение режима : CM (complete main)
Параметр Endianness формата : Big
Идентификатор кодека : A_AC3
Продолжительность : 1 ч. 52 м.
Вид битрейта : Постоянный
Битрейт : 384 Кбит/сек
Каналы : 6 каналов
Расположение каналов : Front: L C R, Side: L R, LFE
Частота : 48,0 КГц
Битовая глубина : 16 бит
Метод сжатия : С потерями
Размер потока : 308 Мбайт (9%)
Язык : Russian
Default : Да
Forced : Нет

Меню
00:00:00.000 : en:Глава 1
00:02:55.000 : en:Глава 2
00:07:52.000 : en:Глава 3
00:12:37.000 : en:Глава 4
00:19:42.000 : en:Глава 5
00:24:32.000 : en:Глава 6
00:30:15.000 : en:Глава 7
00:35:01.000 : en:Глава 8
00:40:58.000 : en:Глава 9
00:47:45.000 : en:Глава 10
00:53:40.000 : en:Глава 11
00:58:07.000 : en:Глава 12
01:06:20.000 : en:Глава 13
01:11:58.000 : en:Глава 14
01:18:39.000 : en:Глава 15
01:23:49.000 : en:Глава 16
01:28:37.000 : en:Глава 17
01:34:59.000 : en:Глава 18
01:41:10.000 : en:Глава 19







Вернуться к началу
 Профиль  
 
   Похожие торренты   Автор   Торрент   Размер 
В этой теме нет новых непрочитанных сообщений. Без границ (Карен Оганесян, Резо Гигинеишвили, Роман Прыгунов) [комедия, мелодрама, 2015] WEB-DL 720p [iTunes]

Dracon

7496 | 1050

2.93 ГБ

В этой теме нет новых непрочитанных сообщений. Без границ (Карен Оганесян, Резо Гигинеишвили, Роман Прыгунов) [комедия, мелодрама, 2015] WEB-DLRip [iTunes]

Dracon

24143 | 2808

1.46 ГБ

В этой теме нет новых непрочитанных сообщений. Без границ (Карен Оганесян, Резо Гигинеишвили, Роман Прыгунов) [комедия, мелодрама, 2015] WEB-DL 1080p [iTunes]

Dracon

12412 | 1873

3.23 ГБ

В этой теме нет новых непрочитанных сообщений. Сердце вдребезги / Playing It Cool (Джастин Рирдон) [мелодрама, комедия, 2014] BDRip 720p, Mvo [iTunes]

Dracon

1215 | 33

4.99 ГБ

В этой теме нет новых непрочитанных сообщений. Роман Израэл, Esq. / Roman J. Israel, Esq. [Драма, криминал, 2017] BDRip 720p, Mvo [iTunes]

salma3

0 | 0

4.69 ГБ

В этой теме нет новых непрочитанных сообщений. Роман Израэл, Esq. / Roman J. Israel, Esq. [Драма, криминал, 2017] BDRip 720p, Mvo [iTunes]

salma3

0 | 0

6.78 ГБ

В этой теме нет новых непрочитанных сообщений. ​С 5 до 7. Время любовников / 5 to 7 [Драма, мелодрама, комедия, 2014] BDRemux 1080p, Dub [iTunes]

salma3

0 | 76

27.13 ГБ


Начать новую тему Ответить на тему  [ 1 сообщение ] 




Для Мосгорсуда, Роскомнадзора и рекламодателей:: mosgorsud-torrent[собачка]yandex.ru
cron