Торрент файл
скачать торрент магнет ссылка Добавлен: 16 авг 2015, 11:07
Размер: 2.97 ГБ
Сидеров: 4
Личеров: 0
Автор

СообщениеДобавлено: 16 авг 2015, 11:07 

Не в сети
Зам. Админа
Аватара пользователя
Дата регистрации:
02 дек 2010, 12:39
Спасибо: 12656 / 214
Сообщения: 28010
Год выхода: 2014
Жанр: Боевик, Триллер, Драма, Криминал, Биография
Режиссер: Тристан Паттерсон
В ролях: Джим Стёрджесс, Изабель Лукас, Хлоя Севиньи, Патриция Аркетт, Кристофер Ламберт, Винесса Шоу, Констанс Ву, Мэгалин Эчиканвоке, Рис Койро, Кортни Палм

О фильме: Речь в фильме пойдет об Эдди Додсоне, владельце мебельного магазина на Мелроуз Авеню в Лос-Анджелесе. Он был знаком со многими знаменитостями, вёл праздный образ жизни — веселился и устраивал вечеринки. Но однажды он влюбился, и чтобы произвести впечатление на любимую девушку, решил ограбить банк.



Качество: WEB-DL [720p]
Видео: MPEG4 (AVC), 960@1280x530, 25 fps, 4000 kbit/s
Аудио #1: AC3, 48 kHz, 2 ch, 192 kbit/s  русский
Аудио #2: AC3, 48 kHz, 6 ch, 384 kbit/s  английский
Продолжительность: 01:31:01
Перевод: Дублированный [чистый звук]

General
Unique ID                                : 236896690488294270930341454166232099793 (0xB238A49B3D444281945C6A39D95F6BD1)
Complete name                            : РаздачаDzhenteljmen.grabitelj.2014.D.WEBDL.720p.mkv
Format                                   : Matroska
Format version                           : Version 4 / Version 2
File size                                : 2.97 GiB
Duration                                 : 1h 31mn
Overall bit rate                         : 4 670 Kbps
Encoded date                             : UTC 2015-08-15 17:17:09
Writing application                      : mkvmerge v8.2.0 ('World of Adventure') 64bit
Writing library                          : libebml v1.3.1 + libmatroska v1.4.2
DURATION                                 : 01:31:01.056000000
NUMBER_OF_FRAMES                         : 170658
NUMBER_OF_BYTES                          : 131065344
_STATISTICS_WRITING_APP                  : mkvmerge v8.2.0 ('World of Adventure') 64bit
_STATISTICS_WRITING_DATE_UTC             : 2015-08-15 17:17:09
_STATISTICS_TAGS                         : BPS DURATION NUMBER_OF_FRAMES NUMBER_OF_BYTES

Video
ID                                       : 1
Format                                   : AVC
Format/Info                              : Advanced Video Codec
Format profile                           : Main@L3.1
Format settings, CABAC                   : No
Format settings, ReFrames                : 2 frames
Codec ID                                 : V_MPEG4/ISO/AVC
Duration                                 : 1h 31mn
Bit rate                                 : 4 001 Kbps
Width                                    : 960 pixels
Height                                   : 530 pixels
Display aspect ratio                     : 2.40:1
Frame rate mode                          : Constant
Frame rate                               : 25.000 fps
Color space                              : YUV
Chroma subsampling                       : 4:2:0
Bit depth                                : 8 bits
Scan type                                : Progressive
Bits/(Pixel*Frame)                       : 0.315
Stream size                              : 2.54 GiB (86%)
Language                                 : English
Default                                  : Yes
Forced                                   : No
Color range                              : Limited
Color primaries                          : BT.709
Transfer characteristics                 : BT.709
Matrix coefficients                      : BT.709

Audio #1
ID                                       : 2
Format                                   : AC-3
Format/Info                              : Audio Coding 3
Mode extension                           : CM (complete main)
Format settings, Endianness              : Big
Codec ID                                 : A_AC3
Duration                                 : 1h 31mn
Bit rate mode                            : Constant
Bit rate                                 : 192 Kbps
Channel(s)                               : 2 channels
Channel positions                        : Front: L R
Sampling rate                            : 48.0 KHz
Compression mode                         : Lossy
Stream size                              : 125 MiB (4%)
Language                                 : Russian
Default                                  : Yes
Forced                                   : Yes

Audio #2
ID                                       : 3
Format                                   : AC-3
Format/Info                              : Audio Coding 3
Mode extension                           : CM (complete main)
Format settings, Endianness              : Big
Codec ID                                 : A_AC3
Duration                                 : 1h 31mn
Bit rate mode                            : Constant
Bit rate                                 : 384 Kbps
Channel(s)                               : 6 channels
Channel positions                        : Front: L C R, Side: L R, LFE
Sampling rate                            : 48.0 KHz
Compression mode                         : Lossy
Stream size                              : 250 MiB (8%)
Language                                 : English
Default                                  : No
Forced                                   : No

Menu
00:00:00.000                             : en:1
00:15:00.000                             : en:2
00:30:00.000                             : en:3
00:45:00.000                             : en:4
01:00:00.000                             : en:5
01:15:00.000                             : en:6











Вернуться к началу
 Профиль  
 
   Похожие торренты   Автор   Торрент   Размер 
В этой теме нет новых непрочитанных сообщений. Джентльмен грабитель / Electric Slide [Боевик, криминал, биография, 2014] HDRip-AVC, Dub

salma3

24 | 8

1.41 ГБ

В этой теме нет новых непрочитанных сообщений. Перевозчик: Наследие / The Transporter Refueled [боевик, триллер, криминал, 2015] BDRip 720p, dub+sub [Чистый звук]

salma3

144 | 0

4.5 ГБ

В этой теме нет новых непрочитанных сообщений. Танцовщица / La danseuse [драма, биография, музыка, 2016] BDRip 720p, Mvo+Sub [чистый звук]

salma3

67 | 37

5.57 ГБ

В этой теме нет новых непрочитанных сообщений. Аддеролловые дневники / The Adderall Diaries [триллер, драма, криминал, 2015] BDRip 720p, Dub [чистый звук]

salma3

92 | 14

3.57 ГБ

В этой теме нет новых непрочитанных сообщений. Логан / Logan [Фантастика, боевик, триллер, драма, 2017] WEB-DL 720p, Dub [чистый звук]

salma3

171 | 66

4.5 ГБ

В этой теме нет новых непрочитанных сообщений. Cноуден / Snоwden [триллер, драма, биография, 2016] WEB-DLRip, Dub [чистый звук]

salma3

1222 | 51

1.37 ГБ

В этой теме нет новых непрочитанных сообщений. Cноуден / Snоwden [триллер, драма, биография, 2016] WEB-DLRip, Dub [чистый звук]

salma3

7536 | 337

1.46 ГБ


Начать новую тему Ответить на тему  [ 1 сообщение ] 




Для Мосгорсуда, Роскомнадзора и рекламодателей:: mosgorsud-torrent[собачка]yandex.ru
cron