Торрент файл
скачать торрент магнет ссылка Добавлен: 12 авг 2015, 13:33
Размер: 7.55 ГБ
Сидеров: 30
Личеров: 1
Автор

СообщениеДобавлено: 12 авг 2015, 13:33 

В сети
Супермодератор
Аватара пользователя
Дата регистрации:
15 фев 2012, 16:44
Возраст: 28
Спасибо: 6642 / 2146
Сообщения: 45681
Год выхода: 1978
Жанр: Драма
Режиссер: Сильвестр Сталлоне / Sylvester Stallone
В ролях: Сильвестр Сталлоне, Ли Каналито, Арманд Ассанте, Фрэнк МакРэй, Энн Арчер, Кевин Конуэй, Том Уэйтс

О фильме:
Нью-Йорк, 1946 год. У трех братьев Карбони — Виктора, Ленни и Космо — одна единственная мечта в жизни: вырваться из самого бандитского района Нью-Йорка под названием «Адская кухня». Но для этого нужно разорвать круг беспросветной бедности, в которой они живут уже много лет. Предприимчивый Космо решает, что надежда заработать много денег все-таки есть. Он предлагает Виктору, самому сильному и спортивному из них, принять участие в серии матчей на рэстлинг-ринге…



Страна: США
Продолжительность: 01:49:13
Перевод: Профессиональный (двухголосый закадровый) - СТС

Файл
Кодек: H264
Качество: BDRip 1080p
Видео: 1920х1040, MPEG AVC, 8864 Кбит/с, 23,976 кадр/с
Звук: Русский (AC3, 2 ch, 192 Кбит/с), Английский (AC3, 2 ch, 192 Кбит/с), Итальянский (AC3, 6 ch, 448 Кбит/с)
Субтитры: Итальянские

Семпл



Общее
Уникальный идентификатор : 191256307559052569912437502454216064979 (0x8FE29FFE906F5CABA72A1B1835C8FFD3)
Полное имя : E:Адская.кухня.1978.BDRip.1080p.Rus.Eng.Ita.mkv
Формат : Matroska
Версия формата : Version 4 / Version 2
Размер файла : 7,55 Гбайт
Продолжительность : 1 ч. 49 м.
Общий поток : 9902 Кбит/сек
Название фильма : Адская кухня / Paradise Alley (1978)
Дата кодирования : UTC 2015-08-12 05:48:19
Программа кодирования : mkvmerge v8.2.0 ('World of Adventure') 64bit
Библиотека кодирования : libebml v1.3.1 + libmatroska v1.4.2
DURATION : 01:44:51.994000000
NUMBER_OF_FRAMES : 1278
NUMBER_OF_BYTES : 55056
_STATISTICS_WRITING_APP : mkvmerge v8.2.0 ('World of Adventure') 64bit
_STATISTICS_WRITING_DATE_UTC : 2015-08-12 05:48:19
_STATISTICS_TAGS : BPS DURATION NUMBER_OF_FRAMES NUMBER_OF_BYTES

Видео
Идентификатор : 1
Формат : AVC
Формат/Информация : Advanced Video Codec
Профиль формата : High@L4.1
Параметр CABAC формата : Да
Параметр ReFrames формата : 4 кадра
Идентификатор кодека : V_MPEG4/ISO/AVC
Продолжительность : 1 ч. 49 м.
Битрейт : 8873 Кбит/сек
Ширина : 1920 пикселей
Высота : 1040 пикселей
Соотношение сторон : 1,85:1
Режим частоты кадров : Постоянный
Частота кадров : 23,976 кадра/сек
Цветовое пространство : YUV
Субдискретизация насыщенности : 4:2:0
Битовая глубина : 8 бит
Тип развёртки : Прогрессивная
Бит/(Пиксели*Кадры) : 0.185
Размер потока : 6,77 Гбайт (90%)
Заголовок : Адская кухня / Paradise Alley (1978)
Библиотека кодирования : x264 core 142 r2389 956c8d8
Язык : English
Default : Да
Forced : Нет
DURATION : 01:48:55.571000000
NUMBER_OF_FRAMES : 156697
NUMBER_OF_BYTES : 7428577783
_STATISTICS_WRITING_APP : mkvmerge v8.2.0 ('World of Adventure') 64bit
_STATISTICS_WRITING_DATE_UTC : 2015-08-12 05:48:19
_STATISTICS_TAGS : BPS DURATION NUMBER_OF_FRAMES NUMBER_OF_BYTES

Аудио #1
Идентификатор : 2
Формат : AC-3
Формат/Информация : Audio Coding 3
Расширение режима : CM (complete main)
Параметр Endianness формата : Big
Идентификатор кодека : A_AC3
Продолжительность : 1 ч. 49 м.
Вид битрейта : Постоянный
Битрейт : 192 Кбит/сек
Каналы : 2 канала
Расположение каналов : Front: L R
Частота : 48,0 КГц
Битовая глубина : 16 бит
Метод сжатия : С потерями
Размер потока : 150 Мбайт (2%)
Заголовок : Профессиональный (Двухголосый закадровый) - СТС
Язык : Russian
Default : Да
Forced : Нет

Аудио #2
Идентификатор : 3
Формат : AC-3
Формат/Информация : Audio Coding 3
Расширение режима : CM (complete main)
Параметр Endianness формата : Big
Идентификатор кодека : A_AC3
Продолжительность : 1 ч. 49 м.
Вид битрейта : Постоянный
Битрейт : 192 Кбит/сек
Каналы : 2 канала
Расположение каналов : Front: L R
Частота : 48,0 КГц
Битовая глубина : 16 бит
Метод сжатия : С потерями
Размер потока : 150 Мбайт (2%)
Заголовок : Английский (Оригинал)
Язык : English
Default : Нет
Forced : Нет

Аудио #3
Идентификатор : 4
Формат : AC-3
Формат/Информация : Audio Coding 3
Расширение режима : CM (complete main)
Параметр Endianness формата : Big
Идентификатор кодека : A_AC3
Продолжительность : 1 ч. 49 м.
Вид битрейта : Постоянный
Битрейт : 448 Кбит/сек
Каналы : 6 каналов
Расположение каналов : Front: L C R, Side: L R, LFE
Частота : 48,0 КГц
Битовая глубина : 16 бит
Метод сжатия : С потерями
Размер потока : 350 Мбайт (5%)
Заголовок : Итальянский (Оригинал)
Язык : Italian
Default : Нет
Forced : Нет

Текст
Идентификатор : 5
Формат : UTF-8
Идентификатор кодека : S_TEXT/UTF8
Идентификатор кодека/Информация : UTF-8 Plain Text
Заголовок : Subs Ita (Regular)
Язык : Italian
Default : Нет
Forced : Нет



_________________
Проголосуй за трекер Открытый торрент трекер - RUS-MEDIA.ORG

Проголосуй Открытый торрент трекер - RUS-MEDIA.ORG



реклама партнёра


Вернуться к началу
 Профиль Отправить личное сообщение  
 
   Похожие торренты   Автор   Торрент   Размер 
В этой теме нет новых непрочитанных сообщений. Vas-o-line Alley \ Vaseline Alley\ Vasoline Alley / Вазелиновый переулок (Vince Benedetti) [1985 г., Classic, VHSRip]

salma3

12 | 4

1.53 ГБ

В этой теме нет новых непрочитанных сообщений. Охотник на оленей / The Deer Hunter [драма, военный, 1978] BDRip 1080p, Mvo

salma3

16 | 8

7.95 ГБ

В этой теме нет новых непрочитанных сообщений. Отряд 10 из Наварона / Force 10 From Navarone [Боевик, драма, воен, 1978] BDRip 1080p, Mvo

salma3

102 | 55

10.84 ГБ

В этой теме нет новых непрочитанных сообщений. Смерть на Ниле / Death on the Nile [драма, криминал, детектив, 1978] BDRip 1080p, Dub

salma3

7 | 6

15.16 ГБ

В этой теме нет новых непрочитанных сообщений. Наследие / The Legacy [Ужасы, Триллер, 1978] BDRip 1080p, Mvo

salma3

59 | 34

7.76 ГБ

В этой теме нет новых непрочитанных сообщений. Потерянный рай / Escobar: Paradise Lost (Андреа Ди Стефано) [триллер, мелодрама, 2014] BDRip 1080p, Mvo [iTunes]

Марик

15 | 3

16.29 ГБ

В этой теме нет новых непрочитанных сообщений. Они называли его Бульдозер / Lo chiamavano Bulldozer [Комедия, боевик, спорт, 1978] BDRip 1080p, Avo

salma3

32 | 10

8.11 ГБ


Начать новую тему Ответить на тему  [ 1 сообщение ] 




Для Мосгорсуда, Роскомнадзора и рекламодателей:: mosgorsud-torrent[собачка]yandex.ru