Торрент файл
скачать торрент магнет ссылка Добавлен: 04 авг 2015, 22:48
Размер: 24.06 ГБ
Сидеров: 31
Личеров: 3
Автор

СообщениеДобавлено: 04 авг 2015, 22:48 

В сети
Супермодератор
Аватара пользователя
Дата регистрации:
15 фев 2012, 16:44
Возраст: 28
Спасибо: 6672 / 2146
Сообщения: 46165
Год выхода: 1990
Жанр: ужасы
Режиссер: Том Савини
В ролях: Тони Тодд, Патриция Таллман, Том Таулз, МакКи Андерсон, Уильям Батлер, Кэти Финнеран, Билл Моусли, Хезер Мазур, Дэвид В. Батлер, Захари Мотт

О фильме:
Брат и сестра приезжают навестить могилу своей матушки на кладбище в окрестностях Питтсбурга. Брат пугает сестру рассказами о зомби, не подозревая о том, что он весьма недалек от реальности. Внезапно на них набрасывается один из покойников; брата убивают, а Барбара убегает, обнаруживая по дороге фермерский дом. Через какое-то время к нему подъезжает Бен, в бензобаке машины которого кончился бензин. Они решают остаться в доме и готовиться к обороне. Позже выясняется, что в подвале дома прячутся еще несколько человек. Все вместе они должны забаррикадироваться и переждать страшную ночь — ведь зомби не станут сидеть на крыльце и ждать, пока люди выйдут сами — они будут пытаться прорваться внутрь — желание отведать человеческого мяса в них безумно сильно.



Страна: США
Продолжительность: 01:28:15
Перевод 1: Авторский (одноголосый закадровый) Юрий Живов, Вартан Дохалов
Перевод 2: Любительский (дноголосый закадровый) Jakob Bellmann
Оригинальная аудиодорожка: английский

Файл
Кодек: MPEG-4
Качество: BDRemux 1080p
Видео: 1920x1080 at 23.976 fps, ~27487 kbps avg
Аудио 1: DTS-HD Master Audio / 5.1 / 48 kHz / 3684 kbps / 24-bit (DTS Core: 5.1 / 48 kHz / 1509 kbps / 24-bit) |Одноголосый закадровый, Ю.Живов|
Аудио 2: DTS-HD Master Audio / 5.1 / 48 kHz / 3681 kbps / 24-bit (DTS Core: 5.1 / 48 kHz / 1509 kbps / 24-bit) |Одноголосый закадровый, В.Дохалов|
Аудио 3: Dolby Digital Audio Russian 5.1 / 48 kHz / 448 kbps |Одноголосый закадровый, Jakob Bellmann|
Аудио 4: English / DTS-HD Master Audio / 5.1 / 48 kHz / 3799 kbps / 24-bit (DTS Core: 5.1 / 48 kHz / 1509 kbps / 24-bit) Original
Субтитры: русские (x2), английские (SDH)


General
Unique ID : 180312579893688472970622587801687956148 (0x87A6F08FF675F90A974F812E09021AB4)
Complete name : G:Night.of.the.Living.Dead.1990.1080p.Bluray.AVC.Remux.mkv
Format : Matroska
Format version : Version 2
File size : 24.1 GiB
Duration : 1h 28mn
Overall bit rate mode : Variable
Overall bit rate : 39.0 Mbps
Movie name : Night.of.the.Living.Dead.1990.1080p.Bluray.AVC.Remux
Encoded date : UTC 2012-11-08 23:37:51
Writing application : mkvmerge v4.9.1 ('Ich will') сборка от Jul 11 2011 23:53:15
Writing library : libebml v1.2.1 + libmatroska v1.1.1

Video
ID : 1
Format : AVC
Format/Info : Advanced Video Codec
Format profile : High@L4.1
Format settings, CABAC : Yes
Format settings, ReFrames : 4 frames
Codec ID : V_MPEG4/ISO/AVC
Duration : 1h 28mn
Bit rate mode : Variable
Bit rate : 32.1 Mbps
Maximum bit rate : 38.0 Mbps
Width : 1 920 pixels
Height : 1 080 pixels
Display aspect ratio : 16:9
Frame rate : 23.976 fps
Color space : YUV
Chroma subsampling : 4:2:0
Bit depth : 8 bits
Scan type : Progressive
Bits/(Pixel*Frame) : 0.645
Stream size : 19.8 GiB (82%)
Title : hdclub
Default : Yes
Forced : No

Audio #1
ID : 2
Format : DTS
Format/Info : Digital Theater Systems
Format profile : MA / Core
Codec ID : A_DTS
Duration : 1h 28mn
Bit rate mode : Variable
Bit rate : 2 146 Kbps / 1 510 Kbps
Channel(s) : 6 channels
Channel positions : Front: L C R, Side: L R, LFE
Sampling rate : 48.0 KHz
Bit depth : 24 bits
Compression mode : Lossless / Lossy
Title : Юрий Живов
Language : Russian
Default : Yes
Forced : No

Audio #2
ID : 3
Format : DTS
Format/Info : Digital Theater Systems
Format profile : MA / Core
Codec ID : A_DTS
Duration : 1h 28mn
Bit rate mode : Variable
Bit rate : 2 017 Kbps / 1 510 Kbps
Channel(s) : 6 channels
Channel positions : Front: L C R, Side: L R, LFE
Sampling rate : 48.0 KHz
Bit depth : 24 bits
Compression mode : Lossless / Lossy
Title : Вартан Дохалов
Language : Russian
Default : No
Forced : No

Audio #3
ID : 4
Format : AC-3
Format/Info : Audio Coding 3
Mode extension : CM (complete main)
Format settings, Endianness : Big
Codec ID : A_AC3
Duration : 1h 28mn
Bit rate mode : Constant
Bit rate : 448 Kbps
Channel(s) : 6 channels
Channel positions : Front: L C R, Side: L R, LFE
Sampling rate : 48.0 KHz
Bit depth : 16 bits
Compression mode : Lossy
Stream size : 283 MiB (1%)
Title : Jakob Bellmann
Language : Russian
Default : No
Forced : No

Audio #4
ID : 5
Format : DTS
Format/Info : Digital Theater Systems
Format profile : MA / Core
Codec ID : A_DTS
Duration : 1h 28mn
Bit rate mode : Variable
Bit rate : 1 561 Kbps / 1 510 Kbps
Channel(s) : 6 channels
Channel positions : Front: L C R, Side: L R, LFE
Sampling rate : 48.0 KHz
Bit depth : 24 bits
Compression mode : Lossless / Lossy
Language : English
Default : No
Forced : No

Text #1
ID : 6
Format : UTF-8
Codec ID : S_TEXT/UTF8
Codec ID/Info : UTF-8 Plain Text
Title : Stevvie
Language : Russian
Default : No
Forced : No

Text #2
ID : 7
Format : UTF-8
Codec ID : S_TEXT/UTF8
Codec ID/Info : UTF-8 Plain Text
Title : v2
Language : Russian
Default : No
Forced : No

Text #3
ID : 8
Format : UTF-8
Codec ID : S_TEXT/UTF8
Codec ID/Info : UTF-8 Plain Text
Title : SRT
Language : English
Default : No
Forced : No

Text #4
ID : 9
Format : PGS
Muxing mode : zlib
Codec ID : S_HDMV/PGS
Codec ID/Info : The same subtitle format used on BDs/HD-DVDs
Title : PGS
Language : English
Default : No
Forced : No

Menu
00:00:00.000 : en:00:00:00.000
00:08:25.630 : en:00:08:25.630
00:20:03.452 : en:00:20:03.452
00:27:50.043 : en:00:27:50.043
00:33:28.715 : en:00:33:28.715
00:37:06.891 : en:00:37:06.891
00:44:05.226 : en:00:44:05.226
00:53:19.988 : en:00:53:19.988
00:59:48.627 : en:00:59:48.627
01:11:31.787 : en:01:11:31.787
01:17:56.755 : en:01:17:56.755
01:25:07.978 : en:01:25:07.978


_________________
Проголосуй за трекер Открытый торрент трекер - RUS-MEDIA.ORG

Проголосуй Открытый торрент трекер - RUS-MEDIA.ORG



реклама партнёра


Вернуться к началу
 Профиль Отправить личное сообщение  
 
   Похожие торренты   Автор   Торрент   Размер 
В этой теме нет новых непрочитанных сообщений. Ночь Живых Мертвецов / Night of the Living Dead [Ужасы, 1990] BDRip 1080p, Avo+Sub

salma3

102 | 23

7.33 ГБ

В этой теме нет новых непрочитанных сообщений. Ночь живых мертвецов / Night of the Living Dead [ужасы, 1968] BDRip 720p, Dvo+Avo+Sub

salma3

37 | 13

4.36 ГБ

В этой теме нет новых непрочитанных сообщений. Возвращение живых мертвецов / The Return of the Living Dead [ужасы, комедия, 1985] BDRemux 1080p, Mvo [Remastered]

salma3

6 | 5

25.86 ГБ

В этой теме нет новых непрочитанных сообщений. Возвращение живых мертвецов / The Return of the Living Dead [ужасы, комедия, 1985] BDRip 1080p, Mvo [Remastered]

salma3

4 | 0

9.95 ГБ

В этой теме нет новых непрочитанных сообщений. Возвращение живых мертвецов 2 / Return of the Living Dead: Part II [ужасы, фантастика, комедия, 1988] WEBRip 1080p, Mvo+Avo

salma3

24 | 30

9.62 ГБ

В этой теме нет новых непрочитанных сообщений. Поля живых мертвецов / Fields of the Dead [Ужасы, 2014] BDRemux 1080p, Avo

salma3

48 | 13

11.88 ГБ

В этой теме нет новых непрочитанных сообщений. Возвращение живых мертвецов / The Return of the Living Dead [ужасы, 1985] BDRip-AVC, Dvo

salma3

13 | 35

744.44 МБ


Начать новую тему Ответить на тему  [ 1 сообщение ] 




Для Мосгорсуда, Роскомнадзора и рекламодателей:: mosgorsud-torrent[собачка]yandex.ru