Торрент файл
скачать торрент магнет ссылка Добавлен: 03 авг 2015, 11:10
Размер: 3.06 ГБ
Сидеров: 661
Личеров: 50
Автор

СообщениеДобавлено: 03 авг 2015, 11:10 

Не в сети
Зам. Админа
Аватара пользователя
Дата регистрации:
02 дек 2010, 12:39
Спасибо: 12654 / 214
Сообщения: 28010
Год выхода: 2015
Жанр: драма, комедия
Режиссер: Дэвей Фербенкс, Марк Смолл
В ролях: Франц Драмех, Эми Тайгер, МакКелл Дэвид, Джейкоб Чепмен, Акшай Кумар, Алекс Ланипекун, Стивен Кри, Оливия Ченери, Том Дэвис, Келси Хардвик


О фильме: Шон и его четверо друзей собирались на важнейшую вечеринку "Хром", но когда они с треском были изгнаны с нее, Шон узнал, что у его старшего брата есть темная история с клубным промоутером Дэмиеном Чейзом. И Шон решил сделать свою наикрутейшую вечеринку. Когда Дэмиен узнает, что пять друзей планируют свергнуть его империю, он идет на все, уверенный, что пятерых друзей постигнет такая же участь, как и брата Шона.

Выпущено: Великобритания / Angry Badger Pictures, Plumcourt Legacy, Plumcourt Production, Think Big Productions, Unstoppable Entertainment
Продолжительность: 01:35:21
Озвучивание: Дублированное [iTunes]

Формат: MKV
Качество: WEB-DL 720p
Видео: 3922 kb/s, 1280x532
Аудио: Russian: AC3, 192 kb/s (2 ch) / English: AC3, 384 kb/s (6 ch)
Субтитры: Russian, English
Format : Matroska
Format version : Version 2
File size : 3.06 GiB
Duration : 1h 35mn
Overall bit rate : 4 589 Kbps
Encoded date : UTC 2015-08-02 17:47:41
Writing application : mkvmerge v8.2.0 ('World of Adventure') 64bit
Writing library : libebml v1.3.1 + libmatroska v1.4.2
DURATION : 01:35:21.120000000
NUMBER_OF_FRAMES : 178785
NUMBER_OF_BYTES : 137306880
_STATISTICS_WRITING_APP : mkvmerge v8.2.0 ('World of Adventure') 64bit
_STATISTICS_WRITING_DATE_UTC : 2015-08-02 17:47:41
_STATISTICS_TAGS : BPS DURATION NUMBER_OF_FRAMES NUMBER_OF_BYTES

Video
ID : 1
Format : AVC
Format/Info : Advanced Video Codec
Format profile : Main@L3.1
Format settings, CABAC : No
Format settings, ReFrames : 2 frames
Codec ID : V_MPEG4/ISO/AVC
Duration : 1h 35mn
Bit rate : 3 922 Kbps
Width : 1 280 pixels
Height : 532 pixels
Display aspect ratio : 2.40:1
Frame rate mode : Constant
Frame rate : 23.976 fps
Color space : YUV
Chroma subsampling : 4:2:0
Bit depth : 8 bits
Scan type : Progressive
Bits/(Pixel*Frame) : 0.240
Stream size : 2.61 GiB (85%)
Language : English
Default : Yes
Forced : No
Color range : Limited
Color primaries : BT.709
Transfer characteristics : BT.709
Matrix coefficients : BT.709

Audio #1
ID : 2
Format : AC-3
Format/Info : Audio Coding 3
Mode extension : CM (complete main)
Format settings, Endianness : Big
Codec ID : A_AC3
Duration : 1h 35mn
Bit rate mode : Constant
Bit rate : 192 Kbps
Channel(s) : 2 channels
Channel positions : Front: L R
Sampling rate : 48.0 KHz
Bit depth : 16 bits
Compression mode : Lossy
Stream size : 131 MiB (4%)
Language : Russian
Default : Yes
Forced : No

Audio #2
ID : 3
Format : AC-3
Format/Info : Audio Coding 3
Mode extension : CM (complete main)
Format settings, Endianness : Big
Codec ID : A_AC3
Duration : 1h 35mn
Bit rate mode : Constant
Bit rate : 384 Kbps
Channel(s) : 6 channels
Channel positions : Front: L C R, Side: L R, LFE
Sampling rate : 48.0 KHz
Bit depth : 16 bits
Compression mode : Lossy
Stream size : 262 MiB (8%)
Title : AC3 5.1 @ 384 kbps
Language : English
Default : No
Forced : No

Text #1
ID : 4
Format : UTF-8
Codec ID : S_TEXT/UTF8
Codec ID/Info : UTF-8 Plain Text
Title : Forced, iTunes
Language : Russian
Default : Yes
Forced : No

Text #2
ID : 5
Format : UTF-8
Codec ID : S_TEXT/UTF8
Codec ID/Info : UTF-8 Plain Text
Title : iTunes
Language : Russian
Default : No
Forced : No

Text #3
ID : 6
Format : UTF-8
Codec ID : S_TEXT/UTF8
Codec ID/Info : UTF-8 Plain Text
Title : SDH, iTunes
Language : English
Default : No
Forced : No

Menu
00:00:00.000 : en:1
00:08:31.000 : en:2
00:16:12.000 : en:3
00:30:36.000 : en:4
00:36:09.000 : en:5
00:41:17.000 : en:6
00:48:50.000 : en:7
00:56:21.000 : en:8
01:05:28.000 : en:9
01:11:16.000 : en:10
01:20:53.000 : en:11
01:29:12.000 : en:12



Вернуться к началу
 Профиль  
 
   Похожие торренты   Автор   Торрент   Размер 
В этой теме нет новых непрочитанных сообщений. Наследие / Legacy (Дэвей Фербенкс, Марк Смолл) [драма, комедия, 2015] WEB-DLRip, Dub [iTunes]

Dracon

2057 | 89

1.37 ГБ

В этой теме нет новых непрочитанных сообщений. Наследие / Legacy [Комедия, драма, криминал, детектив, 2008] DVDRip, Dvo

salma3

2 | 3

1.37 ГБ

В этой теме нет новых непрочитанных сообщений. Наследие викингов / Viking Legacy [боевик, приключения, 2016] BDRip 720p, Mvo

salma3

1703 | 315

3.42 ГБ

В этой теме нет новых непрочитанных сообщений. 24 часа: Наследие / 24: Legacy / 1 сезон 1-12 серия из 12 [Боевик, детектив, драма, 2017] WEB-DLRip, Mvo [IdeaFilm]

salma3

43 | 23

7.16 ГБ

В этой теме нет новых непрочитанных сообщений. 24 часа: Наследие / 24: Legacy [01x01-03 из 12] (боевик, триллер, драма, кримин, 2017) WEB-DLRip 1080p |Jaskier,Fox

marya111

36 | 51

11.2 ГБ

В этой теме нет новых непрочитанных сообщений. 24 часа: Наследие / 24: Legacy [01x01-02 из 12] (Боевик, детектив, драма, криминал, приключения, 2017) WEB-DLRip | IdeaFilm

marya111

74 | 4

1.18 ГБ

В этой теме нет новых непрочитанных сообщений. Наследие / The Legacy [ужасы, триллер, 1978] BDRip, Mvo

salma3

23 | 4

1.45 ГБ


Начать новую тему Ответить на тему  [ 1 сообщение ] 




Для Мосгорсуда, Роскомнадзора и рекламодателей:: mosgorsud-torrent[собачка]yandex.ru
cron