Торрент файл
скачать торрент магнет ссылка Добавлен: 02 авг 2015, 15:41
Размер: 3.83 ГБ
Сидеров: 101
Личеров: 8
Автор

СообщениеДобавлено: 02 авг 2015, 15:41 

Не в сети
Супермодератор
Аватара пользователя
Дата регистрации:
15 фев 2012, 16:44
Возраст: 28
Спасибо: 6640 / 2146
Сообщения: 45613
Год выпуска: 2000
Страна: США
Жанр: ужасы, фэнтези, боевик, триллер
Продолжительность: 01:39:01
Перевод: дублированный

Режиссёр: Патрик Люссье

В ролях: Джерард Батлер, Кристофер Пламмер, Джонни Ли Миллер, Джастин Уоддэлл, Коллин Фицпатрик, Дженнифер Эспозито, Омар Эппс, Шон Патрик Томас, Дэнни Мастерсон, Локлин Манро

Описание: Банда воров, оснащённых по последнему слову техники, проникает в хранилище известного лондонского антиквара Ван Хелсинга. Прихватив добычу, они скрываются из страны. Обеспокоенный Ван Хелсинг отправляется по следам грабителей, а за ним его помощник Саймон, заинтригованный тайной антиквара. Тот, с кем Саймон в итоге сталкивается, превосходит все ожидания! Его могущество безгранично, а деяния — ужасны! Его имя — Дракула. И лишь один человек на Земле знает правду. Но всей правды не знает никто!...



Качество: BDRip 720p Сравнение с исходником
Формат: MKV
Видео: MPEG-4 AVC, 4854 Кбит/с, 1280x720, 23,943 кадра/с
Аудио 1: русский, AC3, 384 kbps, 6 ch, 48 kHz [дублированный]
Аудио 2: английский, AC3, 192 kbps, 2 ch, 48 kHz [оригинал]
Субтитры 1: русские
Субтитры 2: английские

Сатурн, 2001 год
Номинации (1):
Лучший фильм ужасов

Общее
Уникальный идентификатор : 224176155410109393216236175071334236648 (0xA8A6C1CE2C2D0450A65D70BFBCAE01E8)
Полное имя : D:VideoДракула 2000.2000.BDRip.720p.mkv
Формат : Matroska
Версия формата : Version 4 / Version 2
Размер файла : 3,83 Гбайт
Продолжительность : 1 ч. 39 м.
Общий поток : 5540 Кбит/сек
Название фильма : BDRip -- STarankov
Дата кодирования : UTC 2015-08-02 06:01:09
Программа кодирования : mkvmerge v8.2.0 ('World of Adventure') 64bit
Библиотека кодирования : libebml v1.3.1 + libmatroska v1.4.2
DURATION : 01:32:24.794000000
NUMBER_OF_FRAMES : 973
NUMBER_OF_BYTES : 24060
_STATISTICS_WRITING_APP : mkvmerge v8.2.0 ('World of Adventure') 64bit
_STATISTICS_WRITING_DATE_UTC : 2015-08-02 06:01:09
_STATISTICS_TAGS : BPS DURATION NUMBER_OF_FRAMES NUMBER_OF_BYTES

Видео
Идентификатор : 1
Формат : AVC
Формат/Информация : Advanced Video Codec
Профиль формата : High@L4.1
Параметр CABAC формата : Да
Параметр ReFrames формата : 9 кадров
Идентификатор кодека : V_MPEG4/ISO/AVC
Продолжительность : 1 ч. 39 м.
Битрейт : 4854 Кбит/сек
Ширина : 1280 пикселей
Высота : 720 пикселей
Соотношение сторон : 16:9
Режим частоты кадров : Постоянный
Частота кадров : 23,943 кадра/сек
Частота кадров в оригинале : 23,952 кадра/сек
Цветовое пространство : YUV
Субдискретизация насыщенности : 4:2:0
Битовая глубина : 8 бит
Тип развёртки : Прогрессивная
Бит/(Пиксели*Кадры) : 0.220
Размер потока : 3,36 Гбайт (88%)
Библиотека кодирования : x264 core 146 r2538 121396c
Настройки программы : cabac=1 / ref=9 / deblock=1:-3:-3 / analyse=0x3:0x113 / me=umh / subme=10 / psy=1 / psy_rd=1.00:0.15 / mixed_ref=1 / me_range=32 / chroma_me=1 / trellis=2 / 8x8dct=1 / cqm=0 / deadzone=21,11 / fast_pskip=1 / chroma_qp_offset=-3 / threads=6 / lookahead_threads=1 / sliced_threads=0 / nr=0 / decimate=1 / interlaced=0 / bluray_compat=0 / constrained_intra=0 / bframes=11 / b_pyramid=2 / b_adapt=2 / b_bias=0 / direct=1 / weightb=1 / open_gop=0 / weightp=2 / keyint=230 / keyint_min=22 / scenecut=40 / intra_refresh=0 / rc_lookahead=40 / rc=crf / mbtree=0 / crf=19.0 / qcomp=0.60 / qpmin=0 / qpmax=69 / qpstep=4 / vbv_maxrate=40000 / vbv_bufsize=50000 / crf_max=0.0 / nal_hrd=none / filler=0 / ip_ratio=1.40 / pb_ratio=1.30 / aq=1:1.00
Язык : English
Default : Да
Forced : Нет
DURATION : 01:39:01.842000000
NUMBER_OF_FRAMES : 142319
NUMBER_OF_BYTES : 3685327357
_STATISTICS_WRITING_APP : mkvmerge v8.2.0 ('World of Adventure') 64bit
_STATISTICS_WRITING_DATE_UTC : 2015-08-02 06:01:09
_STATISTICS_TAGS : BPS DURATION NUMBER_OF_FRAMES NUMBER_OF_BYTES

Аудио #1
Идентификатор : 2
Формат : AC-3
Формат/Информация : Audio Coding 3
Расширение режима : CM (complete main)
Параметр Endianness формата : Big
Идентификатор кодека : A_AC3
Продолжительность : 1 ч. 39 м.
Вид битрейта : Постоянный
Битрейт : 384 Кбит/сек
Каналы : 6 каналов
Расположение каналов : Front: L C R, Side: L R, LFE
Частота : 48,0 КГц
Метод сжатия : С потерями
Размер потока : 272 Мбайт (7%)
Заголовок : DUB
Язык : Russian
Default : Да
Forced : Нет

Аудио #2
Идентификатор : 3
Формат : AC-3
Формат/Информация : Audio Coding 3
Расширение режима : CM (complete main)
Параметр Endianness формата : Big
Идентификатор кодека : A_AC3
Продолжительность : 1 ч. 39 м.
Вид битрейта : Постоянный
Битрейт : 192 Кбит/сек
Каналы : 2 канала
Расположение каналов : Front: L R
Частота : 48,0 КГц
Метод сжатия : С потерями
Размер потока : 136 Мбайт (3%)
Заголовок : Original
Язык : English
Default : Нет
Forced : Нет

Текст #1
Идентификатор : 4
Формат : UTF-8
Идентификатор кодека : S_TEXT/UTF8
Идентификатор кодека/Информация : UTF-8 Plain Text
Заголовок : русский
Язык : Russian
Default : Нет
Forced : Нет

Текст #2
Идентификатор : 5
Формат : UTF-8
Идентификатор кодека : S_TEXT/UTF8
Идентификатор кодека/Информация : UTF-8 Plain Text
Заголовок : английский
Default : Нет
Forced : Нет





_________________
Проголосуй за трекер Открытый торрент трекер - RUS-MEDIA.ORG

Проголосуй Открытый торрент трекер - RUS-MEDIA.ORG



реклама партнёра


Вернуться к началу
 Профиль Отправить личное сообщение  
 
   Похожие торренты   Автор   Торрент   Размер 
В этой теме нет новых непрочитанных сообщений. Дракула 2000 / Dracula 2000 [ужасы, фэнтези, боевик, триллер, 2000] BDRip 1080p, Dub+Sub

salma3

54 | 14

9.81 ГБ

В этой теме нет новых непрочитанных сообщений. Дракула 2000 / Dracula 2000 [Ужасы, мистика, 2000] BDRip-AVC, Dub

salma3

112 | 26

745.63 МБ

В этой теме нет новых непрочитанных сообщений. Дракула 2000 / Dracula 2000 [ужасы, мистика, 2000] BDRemux 1080p, Dub

salma3

27 | 18

11.55 ГБ

В этой теме нет новых непрочитанных сообщений. Дракула / Dracula Untold [ужасы, фэнтези, боевик, драма, военный, 2014] BDRip 720p, Dub [iTunes]

Dracon

799 | 65

4.62 ГБ

В этой теме нет новых непрочитанных сообщений. Дракула / Dracula Untold (Гари Шор) [ужасы, фэнтези, боевик, драма, военный, 2014] BDRip 720p, Dub+Sub [iTunes]

Dracon

165 | 7

3.47 ГБ

В этой теме нет новых непрочитанных сообщений. Черри 2000 / Cherry 2000 [фантастика, боевик, приключения, 1987] BDRip 720p, Mvo+2Dvo+Avo+Sub

salma3

62 | 8

4.22 ГБ

В этой теме нет новых непрочитанных сообщений. Что скрывает ложь / What Lies Beneath [ужасы, фэнтези, триллер, 2000] BDRip 720p, Dub

salma3

8 | 2

7.52 ГБ


Начать новую тему Ответить на тему  [ 1 сообщение ] 




Для Мосгорсуда, Роскомнадзора и рекламодателей:: mosgorsud-torrent[собачка]yandex.ru