Торрент файл
скачать торрент магнет ссылка Добавлен: 01 авг 2015, 20:23
Размер: 6.4 ГБ
Сидеров: 44
Личеров: 21
Автор

СообщениеДобавлено: 01 авг 2015, 20:23 

Не в сети
Супермодератор
Аватара пользователя
Дата регистрации:
15 фев 2012, 16:44
Возраст: 28
Спасибо: 7290 / 2147
Сообщения: 70396
Год выпуска: 1994
Страна:США
Жанр: боевик, триллер, драма, криминал
Продолжительность: 02:00:43
Перевод: дублированный, профессиональный многоголосый, профессиональный двухголосый, авторский

Режиссёр: Стивен Хопкинс

В ролях: Джефф Бриджес, Томми Ли Джонс, Сьюзи Эймис, Ллойд Бриджес, Форест Уитакер, Стефи Лайнбург, Джон Финн, Кэйтлин Кларк, Кристофер де Они, Лойд Кэтлетт

Описание: Работающий в полиции сапёр собирается жениться на прекрасной женщине, у которой есть замечательная дочка. Но его будущая жена не знает о прошлом своего мужа. А тот в молодости был ирландским террористом, специализирующимся на взрывах. Когда-то он предотвратил взрыв, в результате которого могли погибнуть сотни людей, но невольно стал причиной гибели своих товарищей и любимой девушки, дочери человека, который увлёк его ложным героизмом этой жестокой борьбы и научил всему, что можно знать о бомбах. Сбежав из тюрьмы, учитель находит неблагодарного ученика и начинает мстить за предательство, убивая его коллег по работе, а в конце планируя убить его новую семью...



Качество: BDRip 720p
Формат: MKV
Видео: MPEG-4 AVC, 3712 Кбит/с, 1280x534, 23,976 кадра/с
Аудио 1: русский, AC3, 192 kbps, 2 ch, 48 kHz [дублированный]
Аудио 2: русский, AC3, 448 kbps, 6 ch, 48 kHz [профессиональный многоголосый, R5]
Аудио 3: русский, AC3, 192 kbps, 2 ch, 48 kHz [профессиональный двухголосый, HTB+]
Аудио 4: русский, AC3, 448 kbps, 6 ch, 48 kHz [авторский, Андрей Гаврилов]

Внешние файлы
Аудио: русский, AC3, 384 kbps, 2 ch, 48 kHz [профессиональный многоголосый, Варус Видео]
Аудио: русский, AC3, 192 kbps, 2 ch, 48 kHz [авторский, Сергей Визгунов]
Аудио: русский, AC3, 448 kbps, 6 ch, 48 kHz [авторский, Василий Горчаков]
Аудио: русский, AC3, 448 kbps, 6 ch, 48 kHz [авторский, Ю.Живов]
Аудио: украинский, AC3, 192 kbps, 2 ch, 48 kHz [профессиональный многоголосый, ICTV]
Аудио: украинский, AC3, 192 kbps, 2 ch, 48 kHz [профессиональный двухголосый, 1+1]
Аудио: английский, AC3, 448 kbps, 6 ch, 48 kHz [оригинал]
Аудио: английский, AC3, 192 kbps, 2 ch, 48 kHz [комментарий]
Субтитры: английские

Премия канала «MTV», 1995 год
Номинации (2):
Лучший злодей (Томми Ли Джонс)
Лучшая экшн-сцена

Общее
Полное имя : D:VideoПодрывники.1994.BDRip.720pПодрывники.1994.AVO.rus.В.Горчаков.ac3
Формат : AC-3
Формат/Информация : Audio Coding 3
Размер файла : 387 Мбайт
Продолжительность : 2 ч. 0 м.
Режим общего битрейта : Постоянный
Общий поток : 448 Кбит/сек

Аудио
Формат : AC-3
Формат/Информация : Audio Coding 3
Расширение режима : CM (complete main)
Параметр Endianness формата : Big
Продолжительность : 2 ч. 0 м.
Вид битрейта : Постоянный
Битрейт : 448 Кбит/сек
Каналы : 6 каналов
Расположение каналов : Front: L C R, Side: L R, LFE
Частота : 48,0 КГц
Метод сжатия : С потерями
Размер потока : 387 Мбайт (100%)

Общее
Полное имя : D:VideoПодрывники.1994.BDRip.720pПодрывники.1994.AVO.rus.С.Визгунов.ac3
Формат : AC-3
Формат/Информация : Audio Coding 3
Размер файла : 166 Мбайт
Продолжительность : 2 ч. 0 м.
Режим общего битрейта : Постоянный
Общий поток : 192 Кбит/сек

Аудио
Формат : AC-3
Формат/Информация : Audio Coding 3
Расширение режима : CM (complete main)
Параметр Endianness формата : Big
Продолжительность : 2 ч. 0 м.
Вид битрейта : Постоянный
Битрейт : 192 Кбит/сек
Каналы : 2 канала
Расположение каналов : Front: L R
Частота : 48,0 КГц
Метод сжатия : С потерями
Размер потока : 166 Мбайт (100%)

Общее
Полное имя : D:VideoПодрывники.1994.BDRip.720pПодрывники.1994.AVO.rus.Ю.Живов.ac3
Формат : AC-3
Формат/Информация : Audio Coding 3
Размер файла : 387 Мбайт
Продолжительность : 2 ч. 0 м.
Режим общего битрейта : Постоянный
Общий поток : 448 Кбит/сек

Аудио
Формат : AC-3
Формат/Информация : Audio Coding 3
Расширение режима : CM (complete main)
Параметр Endianness формата : Big
Продолжительность : 2 ч. 0 м.
Вид битрейта : Постоянный
Битрейт : 448 Кбит/сек
Каналы : 6 каналов
Расположение каналов : Front: L C R, Side: L R, LFE
Частота : 48,0 КГц
Метод сжатия : С потерями
Размер потока : 387 Мбайт (100%)

Общее
Уникальный идентификатор : 215122495205469170351088148284492137043 (0xA1D715E4D1ABBF5688D53161A612C253)
Полное имя : D:VideoПодрывники.1994.BDRip.720pПодрывники.1994.BDRip.720p.mkv
Формат : Matroska
Версия формата : Version 4 / Version 2
Размер файла : 4,29 Гбайт
Продолжительность : 2 ч. 0 м.
Общий поток : 5093 Кбит/сек
Название фильма : BDRip -- STarankov
Дата кодирования : UTC 2015-07-30 02:34:44
Программа кодирования : mkvmerge v8.2.0 ('World of Adventure') 64bit
Библиотека кодирования : libebml v1.3.1 + libmatroska v1.4.2
DURATION : 02:00:43.040000000
NUMBER_OF_FRAMES : 226345
NUMBER_OF_BYTES : 405610240
_STATISTICS_WRITING_APP : mkvmerge v8.2.0 ('World of Adventure') 64bit
_STATISTICS_WRITING_DATE_UTC : 2015-07-30 02:34:44
_STATISTICS_TAGS : BPS DURATION NUMBER_OF_FRAMES NUMBER_OF_BYTES

Видео
Идентификатор : 1
Формат : AVC
Формат/Информация : Advanced Video Codec
Профиль формата : High@L4.1
Параметр CABAC формата : Да
Параметр ReFrames формата : 9 кадров
Идентификатор кодека : V_MPEG4/ISO/AVC
Продолжительность : 2 ч. 0 м.
Битрейт : 3712 Кбит/сек
Ширина : 1280 пикселей
Высота : 534 пикселя
Соотношение сторон : 2,40:1
Режим частоты кадров : Постоянный
Частота кадров : 23,976 кадра/сек
Цветовое пространство : YUV
Субдискретизация насыщенности : 4:2:0
Битовая глубина : 8 бит
Тип развёртки : Прогрессивная
Бит/(Пиксели*Кадры) : 0.227
Размер потока : 3,13 Гбайт (73%)
Библиотека кодирования : x264 core 146 r2538 121396c
Настройки программы : cabac=1 / ref=9 / deblock=1:-3:-3 / analyse=0x3:0x113 / me=umh / subme=10 / psy=1 / psy_rd=1.00:0.15 / mixed_ref=1 / me_range=32 / chroma_me=1 / trellis=2 / 8x8dct=1 / cqm=0 / deadzone=21,11 / fast_pskip=1 / chroma_qp_offset=-3 / threads=6 / lookahead_threads=1 / sliced_threads=0 / nr=0 / decimate=1 / interlaced=0 / bluray_compat=0 / constrained_intra=0 / bframes=12 / b_pyramid=2 / b_adapt=2 / b_bias=0 / direct=1 / weightb=1 / open_gop=0 / weightp=2 / keyint=230 / keyint_min=23 / scenecut=40 / intra_refresh=0 / rc_lookahead=40 / rc=crf / mbtree=0 / crf=20.1 / qcomp=0.60 / qpmin=0 / qpmax=69 / qpstep=4 / vbv_maxrate=40000 / vbv_bufsize=50000 / crf_max=0.0 / nal_hrd=none / filler=0 / ip_ratio=1.40 / pb_ratio=1.30 / aq=1:1.00
Язык : English
Default : Да
Forced : Нет
DURATION : 02:00:42.569000000
NUMBER_OF_FRAMES : 173648
NUMBER_OF_BYTES : 3450159809
_STATISTICS_WRITING_APP : mkvmerge v8.2.0 ('World of Adventure') 64bit
_STATISTICS_WRITING_DATE_UTC : 2015-07-30 02:34:44
_STATISTICS_TAGS : BPS DURATION NUMBER_OF_FRAMES NUMBER_OF_BYTES

Аудио #1
Идентификатор : 2
Формат : AC-3
Формат/Информация : Audio Coding 3
Расширение режима : CM (complete main)
Параметр Endianness формата : Big
Идентификатор кодека : A_AC3
Продолжительность : 2 ч. 0 м.
Вид битрейта : Постоянный
Битрейт : 192 Кбит/сек
Каналы : 2 канала
Расположение каналов : Front: L R
Частота : 48,0 КГц
Метод сжатия : С потерями
Размер потока : 166 Мбайт (4%)
Заголовок : DUB
Язык : Russian
Default : Да
Forced : Нет

Аудио #2
Идентификатор : 3
Формат : AC-3
Формат/Информация : Audio Coding 3
Расширение режима : CM (complete main)
Параметр Endianness формата : Big
Идентификатор кодека : A_AC3
Продолжительность : 2 ч. 0 м.
Вид битрейта : Постоянный
Битрейт : 448 Кбит/сек
Каналы : 6 каналов
Расположение каналов : Front: L C R, Side: L R, LFE
Частота : 48,0 КГц
Метод сжатия : С потерями
Размер потока : 387 Мбайт (9%)
Заголовок : MVO (R5)
Язык : Russian
Default : Нет
Forced : Нет

Аудио #3
Идентификатор : 4
Формат : AC-3
Формат/Информация : Audio Coding 3
Расширение режима : CM (complete main)
Параметр Endianness формата : Big
Идентификатор кодека : A_AC3
Продолжительность : 2 ч. 0 м.
Вид битрейта : Постоянный
Битрейт : 192 Кбит/сек
Каналы : 2 канала
Расположение каналов : Front: L R
Частота : 48,0 КГц
Метод сжатия : С потерями
Размер потока : 166 Мбайт (4%)
Заголовок : DVO (HTB+)
Язык : Russian
Default : Нет
Forced : Нет

Аудио #4
Идентификатор : 5
Формат : AC-3
Формат/Информация : Audio Coding 3
Расширение режима : CM (complete main)
Параметр Endianness формата : Big
Идентификатор кодека : A_AC3
Продолжительность : 2 ч. 0 м.
Вид битрейта : Постоянный
Битрейт : 448 Кбит/сек
Каналы : 6 каналов
Расположение каналов : Front: L C R, Side: L R, LFE
Частота : 48,0 КГц
Метод сжатия : С потерями
Размер потока : 387 Мбайт (9%)
Заголовок : AVO (Андрей Гаврилов)
Язык : Russian
Default : Нет
Forced : Нет

Общее
Полное имя : D:VideoПодрывники.1994.BDRip.720pПодрывники.1994.Commentary.eng.ac3
Формат : AC-3
Формат/Информация : Audio Coding 3
Размер файла : 166 Мбайт
Продолжительность : 2 ч. 0 м.
Режим общего битрейта : Постоянный
Общий поток : 192 Кбит/сек

Аудио
Формат : AC-3
Формат/Информация : Audio Coding 3
Расширение режима : CM (complete main)
Параметр Endianness формата : Big
Продолжительность : 2 ч. 0 м.
Вид битрейта : Постоянный
Битрейт : 192 Кбит/сек
Каналы : 2 канала
Расположение каналов : Front: L R
Частота : 48,0 КГц
Метод сжатия : С потерями
Размер потока : 166 Мбайт (100%)

Общее
Полное имя : D:VideoПодрывники.1994.BDRip.720pПодрывники.1994.DVO.ukr.1+1.ac3
Формат : AC-3
Формат/Информация : Audio Coding 3
Размер файла : 166 Мбайт
Продолжительность : 2 ч. 0 м.
Режим общего битрейта : Постоянный
Общий поток : 192 Кбит/сек

Аудио
Формат : AC-3
Формат/Информация : Audio Coding 3
Расширение режима : CM (complete main)
Параметр Endianness формата : Big
Продолжительность : 2 ч. 0 м.
Вид битрейта : Постоянный
Битрейт : 192 Кбит/сек
Каналы : 2 канала
Расположение каналов : Front: L R
Частота : 48,0 КГц
Метод сжатия : С потерями
Размер потока : 166 Мбайт (100%)

Общее
Полное имя : D:VideoПодрывники.1994.BDRip.720pПодрывники.1994.eng.srt
Размер файла : 155 Кбайт

Общее
Полное имя : D:VideoПодрывники.1994.BDRip.720pПодрывники.1994.MVO.rus.Варус Видео.ac3
Формат : AC-3
Формат/Информация : Audio Coding 3
Размер файла : 332 Мбайт
Продолжительность : 2 ч. 0 м.
Режим общего битрейта : Постоянный
Общий поток : 384 Кбит/сек

Аудио
Формат : AC-3
Формат/Информация : Audio Coding 3
Расширение режима : CM (complete main)
Параметр Endianness формата : Big
Продолжительность : 2 ч. 0 м.
Вид битрейта : Постоянный
Битрейт : 384 Кбит/сек
Каналы : 2 канала
Расположение каналов : Front: L R
Частота : 48,0 КГц
Метод сжатия : С потерями
Размер потока : 332 Мбайт (100%)

Общее
Полное имя : D:VideoПодрывники.1994.BDRip.720pПодрывники.1994.MVO.ukr.ICTV.ac3
Формат : AC-3
Формат/Информация : Audio Coding 3
Размер файла : 166 Мбайт
Продолжительность : 2 ч. 0 м.
Режим общего битрейта : Постоянный
Общий поток : 192 Кбит/сек

Аудио
Формат : AC-3
Формат/Информация : Audio Coding 3
Расширение режима : CM (complete main)
Параметр Endianness формата : Big
Продолжительность : 2 ч. 0 м.
Вид битрейта : Постоянный
Битрейт : 192 Кбит/сек
Каналы : 2 канала
Расположение каналов : Front: L R
Частота : 48,0 КГц
Метод сжатия : С потерями
Размер потока : 166 Мбайт (100%)

Общее
Полное имя : D:VideoПодрывники.1994.BDRip.720pПодрывники.1994.Original.eng.ac3
Формат : AC-3
Формат/Информация : Audio Coding 3
Размер файла : 387 Мбайт
Продолжительность : 2 ч. 0 м.
Режим общего битрейта : Постоянный
Общий поток : 448 Кбит/сек

Аудио
Формат : AC-3
Формат/Информация : Audio Coding 3
Расширение режима : CM (complete main)
Параметр Endianness формата : Big
Продолжительность : 2 ч. 0 м.
Вид битрейта : Постоянный
Битрейт : 448 Кбит/сек
Каналы : 6 каналов
Расположение каналов : Front: L C R, Side: L R, LFE
Частота : 48,0 КГц
Метод сжатия : С потерями
Размер потока : 387 Мбайт (100%)






_________________
Проголосуй за трекер Открытый торрент трекер - RUS-MEDIA.ORG

Проголосуй Открытый торрент трекер - RUS-MEDIA.ORG


Вернуться к началу
 Профиль Отправить личное сообщение  
 
   Похожие торренты   Автор   Торрент   Размер 
В этой теме нет новых непрочитанных сообщений. Подрывники / Blown Away [боевик, триллер, драма, криминал, 1994] HDRip, Mvo

salma3

11 | 3

1.46 ГБ

В этой теме нет новых непрочитанных сообщений. Подрывники / Blown Away [Боевик, триллер, 1994] BDRemux 1080p, Dub

salma3

2 | 4

28.57 ГБ

В этой теме нет новых непрочитанных сообщений. Скорость / Speed [боевик, триллер, криминал, приключения, 1994] BDRip 720p, Dub

salma3

2 | 1

13.45 ГБ

В этой теме нет новых непрочитанных сообщений. Клиент / The Client [Триллер, драма, криминал, 1994] BDRip 720p, Dvo

salma3

0 | 0

4.3 ГБ

В этой теме нет новых непрочитанных сообщений. Побег / The Getaway [боевик, триллер, драма, 1994] BDRip 720p, Mvo

salma3

6 | 2

8.12 ГБ

В этой теме нет новых непрочитанных сообщений. Простая формальность / Una pura formalità [триллер, драма, криминал, детектив, 1994] BDRip 720p, Mvo+Sub

salma3

72 | 13

4.48 ГБ

В этой теме нет новых непрочитанных сообщений. Прямая и явная угроза / Clear and Present Danger [Боевик, триллер, драма, криминал, 1994] BDRip-AVC, Mvo+Avo+Sub

salma3

15 | 2

4.32 ГБ


Начать новую тему Ответить на тему  [ 1 сообщение ] 




Для Мосгорсуда, Роскомнадзора и рекламодателей:: mosgorsud-torrent[собачка]yandex.ru
cron