Торрент файл
скачать торрент магнет ссылка Добавлен: 01 авг 2015, 10:32
Размер: 4.19 ГБ
Сидеров: 1914
Личеров: 115
Автор

СообщениеДобавлено: 01 авг 2015, 10:32 

Не в сети
Зам. Админа
Аватара пользователя
Дата регистрации:
02 дек 2010, 12:39
Спасибо: 12648 / 214
Сообщения: 28010
Год выхода: 2015
Жанр: боевик, триллер, криминал
Режиссер: Джеймс Ван



В ролях: Вин Дизель, Пол Уокер, Джейсон Стэйтем, Мишель Родригес, Дуэйн Джонсон, Тайриз Гибсон, Лудакрис, Натали Эммануэль, Джордана Брюстер

О ФИЛЬМЕ
Они покорили Токио и Рио, Лос-Анджелес и Лондон. Но мир больше не играет по их правилам. Зной арабских пустынь, неприлично высокие небоскребы, миллионы долларов на колесах и очень, очень знаменитый злодей. Скорость не знает границ.



Страна: США
Производство: Fast 7 Productions, Original Film, Universal Pictures
Продолжительность: 02:19:55
Перевод: Дублированный (профессиональный) [Лицензия]

Качество: BDRip 720p
Видео: MPEG-4 AVC, 3200 Кбит/с, 1280x534, 23.976 кадр/с
Аудио: Русский (AC3, 6 ch, 448 Кбит/с), английский (AC3, 6 ch, 640 Кбит/с)
Субтитры: Английские
Навигация по главам: Есть



x264 [info]: frame I:2198 Avg QP:14.06 size: 77002
x264 [info]: frame P:71216 Avg QP:17.22 size: 26640
x264 [info]: frame B:127861 Avg QP:19.39 size: 10089
-------------------------

General
Unique ID : 234717906662089235206100689780659080465 (0xB095064522F75954AEE97CCBE90A4D11)
Complete name : Furious.Seven.EXT.2015.BD.720.Hot-Film.mkv
Format : Matroska
Format version : Version 2
File size : 4.19 GiB
Duration : 02:19:55
Overall bit rate : 4 289 Kbps
Encoded date : UTC 2015-08-01 04:25:38
Writing application : mkvmerge v5.8.0 ('No Sleep / Pillow') built on Sep 2 2012 15:37:04
Writing library : libebml v1.2.3 + libmatroska v1.3.0
Attachment : Yes

Video
ID : 1
Format : AVC
Format/Info : Advanced Video Codec
Format profile : High@L4.1
Format settings, CABAC : Yes
Format settings, ReFrames : 9 frames
Codec ID : V_MPEG4/ISO/AVC
Duration : 2h 19mn
Bit rate : 3 200 Kbps
Width : 1 280 pixels
Height : 534 pixels
Display aspect ratio : 2.40:1
Frame rate mode : Constant
Frame rate : fps
Color space : YUV
Chroma subsampling : 4:2:0
Bit depth : 8 bits
Scan type : Progressive
Bits/(Pixel*Frame) : 0.195
Stream size : 3.04 GiB (73%)
Writing library : x264 core 146 r2538 121396c
Encoding settings : cabac=1 / ref=9 / deblock=1:-3:-3 / analyse=0x3:0x133 / me=umh / subme=11 / psy=1 / psy_rd=1.00:0.10 / mixed_ref=1 / me_range=32 / chroma_me=1 / trellis=2 / 8x8dct=1 / cqm=0 / deadzone=21,11 / fast_pskip=0 / chroma_qp_offset=-3 / threads=12 / lookahead_threads=2 / sliced_threads=0 / nr=0 / decimate=0 / interlaced=0 / bluray_compat=0 / constrained_intra=0 / bframes=7 / b_pyramid=2 / b_adapt=2 / b_bias=0 / direct=3 / weightb=1 / open_gop=0 / weightp=2 / keyint=240 / keyint_min=23 / scenecut=40 / intra_refresh=0 / rc_lookahead=40 / rc=2pass / mbtree=0 / bitrate=3200 / ratetol=1.0 / qcomp=0.60 / qpmin=0 / qpmax=69 / qpstep=4 / cplxblur=20.0 / qblur=0.5 / vbv_maxrate=50000 / vbv_bufsize=62500 / nal_hrd=none / filler=0 / ip_ratio=1.40 / pb_ratio=1.30 / aq=1:0.80
Language : English
Default : Yes
Forced : No

Audio #1
ID : 2
Format : AC-3
Format/Info : Audio Coding 3
Mode extension : CM (complete main)
Format settings, Endianness : Big
Codec ID : A_AC3
Duration : 2h 19mn
Bit rate mode : Constant
Bit rate : 448 Kbps
Channel(s) : 6 channels
Channel positions : Front: L C R, Side: L R, LFE
Sampling rate : 48.0 KHz
Bit depth : 16 bits
Compression mode : Lossy
Stream size : 448 MiB (10%)
Title : DUB
Language : Russian
Default : Yes
Forced : No

Audio #2
ID : 3
Format : AC-3
Format/Info : Audio Coding 3
Mode extension : CM (complete main)
Format settings, Endianness : Big
Codec ID : A_AC3
Duration : 2h 19mn
Bit rate mode : Constant
Bit rate : 640 Kbps
Channel(s) : 6 channels
Channel positions : Front: L C R, Side: L R, LFE
Sampling rate : 48.0 KHz
Bit depth : 16 bits
Compression mode : Lossy
Stream size : 640 MiB (15%)
Title : Original
Language : English
Default : No
Forced : No

Text
ID : 4
Format : UTF-8
Codec ID : S_TEXT/UTF8
Codec ID/Info : UTF-8 Plain Text
Title : Full
Language : English
Default : No
Forced : No

Menu
00:00:00.000 : :Chapter 01
00:04:39.946 : :Chapter 02
00:11:29.480 : :Chapter 03
00:16:39.289 : :Chapter 04
00:25:54.052 : :Chapter 05
00:33:43.896 : :Chapter 06
00:41:44.585 : :Chapter 07
00:46:41.006 : :Chapter 08
00:52:10.710 : :Chapter 09
01:02:31.414 : :Chapter 10
01:06:16.680 : :Chapter 11
01:14:16.868 : :Chapter 12
01:22:34.032 : :Chapter 13
01:33:21.137 : :Chapter 14
01:38:27.484 : :Chapter 15
01:45:40.083 : :Chapter 16
01:53:54.452 : :Chapter 17
01:58:31.062 : :Chapter 18
02:06:19.863 : :Chapter 19
02:11:31.174 : :Chapter 20



Вернуться к началу
 Профиль  
 
   Похожие торренты   Автор   Торрент   Размер 
В этой теме нет новых непрочитанных сообщений. Форсаж 7 / Furious 7 (Джеймс Ван) [боевик, триллер, криминал, 2015] BDRip-AVC, Dub [Extended cut | Лицензия]

Dracon

476 | 8

1.46 ГБ

В этой теме нет новых непрочитанных сообщений. Форсаж 7 / Furious 7 (Джеймс Ван) [боевик, триллер, криминал, 2015] BDRip 720p, Dub+Sub [Театральная версия | BLUEBIRD]

Dracon

23 | 1

8.88 ГБ

В этой теме нет новых непрочитанных сообщений. Форсаж 7 / Furious 7 (Джеймс Ван) [боевик, триллер, криминал, 2015] BDRip, Dub [iTunes]

Dracon

269 | 14

1.38 ГБ

В этой теме нет новых непрочитанных сообщений. Форсаж 7 / Furious 7 (Джеймс Ван) [боевик, триллер, криминал, 2015] BDRip, Dub [iTunes]

Dracon

35 | 1

2.06 ГБ

В этой теме нет новых непрочитанных сообщений. Форсаж 7 /  Furious 7 (Джеймс Ван) [боевик, триллер, криминал, 2015] BDRip-AVC, Dub+Sub [Theatrical cut | iTunes]

Dracon

213 | 3

3.05 ГБ

В этой теме нет новых непрочитанных сообщений. Форсаж 7 / Furious 7 (Джеймс Ван) [боевик, триллер, криминал, 2015] BDRip 1080p, Dub+Sub [Театральная версия | BLUEBIRD]

Dracon

32 | 0

15.02 ГБ

В этой теме нет новых непрочитанных сообщений. Форсаж 7 / Furious 7 (Джеймс Ван) [боевик, триллер, криминал, 2015] HDTVRip, avo

Dracon

10 | 4

2.15 ГБ


Начать новую тему Ответить на тему  [ 1 сообщение ] 




Для Мосгорсуда, Роскомнадзора и рекламодателей:: mosgorsud-torrent[собачка]yandex.ru
cron