Торрент файл
скачать торрент магнет ссылка Добавлен: 25 июл 2015, 11:12
Размер: 3.14 ГБ
Сидеров: 100
Личеров: 6
Автор

СообщениеДобавлено: 25 июл 2015, 11:12 

Не в сети
Супермодератор
Аватара пользователя
Дата регистрации:
15 фев 2012, 16:44
Возраст: 28
Спасибо: 7205 / 2147
Сообщения: 65433
Год выпуска: 1994
Жанр: комедия, приключения
Режиссер: Джонатан Принц

В ролях: Кристофер Ллойд, Джонатан Джексон, Уэнди Маккена, М. Эммет Уолш, Джон Путч, Питер Сколари, Роми Уиндсор, Джошуа Гибран Мэйвизер, Эндрю Кигэн, Девин Отвэй

Описание:
Летний лагерь — отдых только с первого взгляда. Сами дети имеют на этот счет особое мнение, поэтому, когда Моррис Химмель узнает, что ему вместе с друзьями предстоит провести лето на таком «отдыхе», он решает действовать. Сообща компания решается на веселую авантюру: они организуют свой собственный лагерь, райский уголок без родителей с морем развлечений. Им удается убедить доверчивых мам и пап в существовании мифического уголка детского отдыха и даже потратить их деньги на это. Однако впереди друзей ждет маленькая проблема, грозящая обернуться большими неприятностями: грядет родительский день, когда обман может легко раскрыться.



Выпущено: США
Перевод: Профессиональный [многоголосый, Видеосервис]
Субтитры: Нет
Продолжительность: 01:35:47

Файл
Качество: BDRip 720p
Контейнер: MKV
Видео: 1280x720, MPEG-4 AVC Video, 23.976 fps, 4500 kbps
Аудио: 48 kHz, АС3, 2 ch, 192 kbps


General
Unique ID : 136047709262454606642545042021821229156 (0x6659D5F14FF96B20D629B69DBFD8A864)
Complete name : F:FILMSЗатерянный лагерь(1994)BLU-RAY-720p.[-=DoMiNo=-].mkv
Format : Matroska
Format version : Version 4 / Version 2
File size : 3.14 GiB
Duration : 1h 35mn
Overall bit rate : 4 695 Kbps
Writing application : XviD4PSP 7.0.122
Writing library : Lavf56.15.102
COMMENT : BluRay > MKV 720p / H264 > X264 VBR-2P 4500kbps Custom / AC3 > COPY

Video
ID : 1
Format : AVC
Format/Info : Advanced Video Codec
Format profile : High@L4.1
Format settings, CABAC : Yes
Format settings, ReFrames : 9 frames
Codec ID : V_MPEG4/ISO/AVC
Duration : 1h 35mn
Bit rate : 4 500 Kbps
Width : 1 280 pixels
Height : 720 pixels
Display aspect ratio : 16:9
Frame rate mode : Constant
Frame rate : 23.976 fps
Color space : YUV
Chroma subsampling : 4:2:0
Bit depth : 8 bits
Scan type : Progressive
Bits/(Pixel*Frame) : 0.204
Stream size : 2.95 GiB (94%)
Writing library : x264 core 146 r2538M 121396c
Encoding settings : cabac=1 / ref=9 / deblock=1:-3:-3 / analyse=0x3:0x133 / me=umh / subme=11 / psy=1 / psy_rd=1,00:0,50 / mixed_ref=1 / me_range=32 / chroma_me=1 / trellis=2 / 8x8dct=1 / cqm=0 / deadzone=21,11 / fast_pskip=0 / chroma_qp_offset=-4 / threads=12 / lookahead_threads=2 / sliced_threads=0 / nr=0 / decimate=1 / interlaced=0 / bluray_compat=0 / constrained_intra=0 / bframes=8 / b_pyramid=2 / b_adapt=2 / b_bias=0 / direct=3 / weightb=1 / open_gop=0 / weightp=2 / keyint=230 / keyint_min=23 / scenecut=40 / intra_refresh=0 / rc=2pass / mbtree=0 / bitrate=4500 / ratetol=1,0 / qcomp=0,60 / qpmin=3 / qpmax=69 / qpstep=4 / cplxblur=20,0 / qblur=0,5 / ip_ratio=1,40 / pb_ratio=1,30 / aq=1:1,00
Default : Yes
Forced : No
Color range : Limited
Color primaries : BT.709
Transfer characteristics : BT.709
Matrix coefficients : BT.709

Audio
ID : 2
Format : AC-3
Format/Info : Audio Coding 3
Mode extension : CM (complete main)
Format settings, Endianness : Big
Codec ID : A_AC3
Duration : 1h 35mn
Bit rate mode : Constant
Bit rate : 192 Kbps
Channel(s) : 2 channels
Channel positions : Front: L R
Sampling rate : 48.0 KHz
Bit depth : 32 bits
Compression mode : Lossy
Stream size : 132 MiB (4%)
Language : Russian
Default : Yes
Forced : No

Menu
00:00:00.000 : :Chapter 1
00:04:18.882 : :Chapter 2
00:13:00.529 : :Chapter 3
00:19:45.559 : :Chapter 4
00:28:40.552 : :Chapter 5
00:37:45.596 : :Chapter 6
00:47:57.708 : :Chapter 7
00:56:57.997 : :Chapter 8
01:07:10.192 : :Chapter 9
01:14:38.849 : :Chapter 10
01:21:29.426 : :Chapter 11
01:32:38.511 : :Chapter 12
01:35:47.700 : :Chapter 13


_________________
Проголосуй за трекер Открытый торрент трекер - RUS-MEDIA.ORG

Проголосуй Открытый торрент трекер - RUS-MEDIA.ORG


Вернуться к началу
 Профиль Отправить личное сообщение  
 
   Похожие торренты   Автор   Торрент   Размер 
В этой теме нет новых непрочитанных сообщений. Летний лагерь / Summer Camp [ужасы, 2015] BDRip 720p, Mvo

salma3

2 | 2

3.33 ГБ

В этой теме нет новых непрочитанных сообщений. Лагерь страха / Bigfoot Horror Camp [Ужасы, 2017] WEBRip 720p, Dvo

salma3

0 | 1

2.17 ГБ

В этой теме нет новых непрочитанных сообщений. Танцевальный лагерь / Dance Camp (драма, комедия, 2016) WEB-DLRip | L2

marya111

0 | 0

1.36 ГБ

В этой теме нет новых непрочитанных сообщений. Танцевальный лагерь / Dance Camp [драма, комедия, 2016] WEBDLRip, Dvo

salma3

16 | 37

1.36 ГБ

В этой теме нет новых непрочитанных сообщений. Лагерь девушек-болельщиц / Cheerleader Camp [ужасы, триллер, комедия, 1988] DVD5, Avo

salma3

84 | 29

4.21 ГБ

В этой теме нет новых непрочитанных сообщений. Летний лагерь / Summer Camp [Ужасы, 2015] HDRip, Dvo

salma3

22 | 2

1.45 ГБ

В этой теме нет новых непрочитанных сообщений. Спящий лагерь / Sleepaway Camp [ужасы, 1983] BDRemux 1080р, Mvo

salma3

0 | 0

19.84 ГБ


Начать новую тему Ответить на тему  [ 1 сообщение ] 




Для Мосгорсуда, Роскомнадзора и рекламодателей:: mosgorsud-torrent[собачка]yandex.ru
cron