Торрент файл
скачать торрент магнет ссылка Добавлен: 23 июл 2015, 12:11
Размер: 11.03 ГБ
Сидеров: 47
Личеров: 9
Автор

СообщениеДобавлено: 23 июл 2015, 12:11 

Не в сети
Супермодератор
Аватара пользователя
Дата регистрации:
15 фев 2012, 16:44
Возраст: 28
Спасибо: 6642 / 2146
Сообщения: 45664
Год выпуска: 2007
Страна: США
Жанр: триллер, драма, криминал, детектив
Продолжительность: 01:48:58
Перевод: дублированный, авторский

Режиссёр: Джеймс Фоули

В ролях: Холли Берри, Брюс Уиллис, Джованни Рибизи, Ричард Портноу, Гари Дурдан, Флоренция Лозаньо, Никки Эйкокс, Кэтлин Чэлфант, Гордон МакДональд, Дэниэлла Ван Граас, Паула Миранда, Патти Д`Арбанвилль, Клеа Льюис, Тамара Фельдман, Джерри Бекер, Джаред Бурк

Описание: Когда журналистка Ровена Прайс, занимающаяся расследованием убийства своей подруги, узнаёт, что к нему может быть причастен влиятельный глава рекламного агентства Харрисон Хилл, она затевает опасную игру вместе со своим помощником Майлзом Хэйли. Принимая образы Катарины, машинистки в агентстве Хилла, Вероники, девушки, с которой Хилл флиртует в Интернете, она плетёт хитроумную паутину вокруг своей жертвы, чтобы, в конечном счёте, выяснить, что она не единственная, кто меняет свои личины. Чем ближе мы приближаемся к разгадке тайны, тем очевиднее ответ на вопрос, как далеко люди готовы идти, чтобы защитить её: сокровенную тайну.



Качество: BDRip 1080p Сравнение с исходником
Формат: MKV
Видео: MPEG-4 AVC, 10.5 Mбит/с, 1920х800, 23,976 кадра/с
Аудио 1: русский, AC3, 640 kbps, 6 ch, 48 kHz [дублированный]
Аудио 2: русский, DTS, 1509 kbps, 6 ch, 48 kHz [авторский, Андрей Гаврилов]
Аудио 3: английский, DTS, 1509 kbps, 6 ch, 48 kHz [оригинал]
Субтитры: английские

Общее
Уникальный идентификатор : 200408146531712880760455347654550500890 (0x96C5347E2FCF307DA946751335AA361A)
Полное имя : D:VideoИдеальный незнакомец.2007.BDRip.1080p.mkv
Формат : Matroska
Версия формата : Version 4 / Version 2
Размер файла : 11,0 Гбайт
Продолжительность : 1 ч. 48 м.
Общий поток : 14,5 Мбит/сек
Название фильма : BDRip -- STarankov
Дата кодирования : UTC 2015-07-23 02:39:32
Программа кодирования : mkvmerge v8.2.0 ('World of Adventure') 64bit
Библиотека кодирования : libebml v1.3.1 + libmatroska v1.4.2
DURATION : 01:48:58.539000000
NUMBER_OF_FRAMES : 612988
NUMBER_OF_BYTES : 1233332268
_STATISTICS_WRITING_APP : mkvmerge v8.2.0 ('World of Adventure') 64bit
_STATISTICS_WRITING_DATE_UTC : 2015-07-23 02:39:32
_STATISTICS_TAGS : BPS DURATION NUMBER_OF_FRAMES NUMBER_OF_BYTES

Видео
Идентификатор : 1
Формат : AVC
Формат/Информация : Advanced Video Codec
Профиль формата : High@L4.1
Параметр CABAC формата : Да
Параметр ReFrames формата : 4 кадра
Идентификатор кодека : V_MPEG4/ISO/AVC
Продолжительность : 1 ч. 48 м.
Битрейт : 10,5 Мбит/сек
Ширина : 1920 пикселей
Высота : 800 пикселей
Соотношение сторон : 2,40:1
Режим частоты кадров : Постоянный
Частота кадров : 23,976 кадра/сек
Цветовое пространство : YUV
Субдискретизация насыщенности : 4:2:0
Битовая глубина : 8 бит
Тип развёртки : Прогрессивная
Бит/(Пиксели*Кадры) : 0.286
Размер потока : 8,03 Гбайт (73%)
Библиотека кодирования : x264 core 146 r2538 121396c
Настройки программы : cabac=1 / ref=4 / deblock=1:-1:-1 / analyse=0x3:0x113 / me=umh / subme=10 / psy=1 / psy_rd=1.00:0.15 / mixed_ref=1 / me_range=32 / chroma_me=1 / trellis=2 / 8x8dct=1 / cqm=0 / deadzone=21,11 / fast_pskip=1 / chroma_qp_offset=-3 / threads=6 / lookahead_threads=1 / sliced_threads=0 / nr=0 / decimate=1 / interlaced=0 / bluray_compat=0 / constrained_intra=0 / bframes=11 / b_pyramid=2 / b_adapt=2 / b_bias=0 / direct=1 / weightb=1 / open_gop=0 / weightp=2 / keyint=230 / keyint_min=23 / scenecut=40 / intra_refresh=0 / rc_lookahead=40 / rc=crf / mbtree=0 / crf=19.0 / qcomp=0.60 / qpmin=0 / qpmax=69 / qpstep=4 / vbv_maxrate=40000 / vbv_bufsize=50000 / crf_max=0.0 / nal_hrd=none / filler=0 / ip_ratio=1.40 / pb_ratio=1.30 / aq=1:1.00
Язык : English
Default : Да
Forced : Нет
DURATION : 01:48:58.532000000
NUMBER_OF_FRAMES : 156768
NUMBER_OF_BYTES : 8849456994
_STATISTICS_WRITING_APP : mkvmerge v8.2.0 ('World of Adventure') 64bit
_STATISTICS_WRITING_DATE_UTC : 2015-07-23 02:39:32
_STATISTICS_TAGS : BPS DURATION NUMBER_OF_FRAMES NUMBER_OF_BYTES

Аудио #1
Идентификатор : 2
Формат : AC-3
Формат/Информация : Audio Coding 3
Расширение режима : CM (complete main)
Параметр Endianness формата : Big
Идентификатор кодека : A_AC3
Продолжительность : 1 ч. 48 м.
Вид битрейта : Постоянный
Битрейт : 640 Кбит/сек
Каналы : 6 каналов
Расположение каналов : Front: L C R, Side: L R, LFE
Частота : 48,0 КГц
Метод сжатия : С потерями
Размер потока : 499 Мбайт (4%)
Заголовок : DUB
Язык : Russian
Default : Да
Forced : Нет

Аудио #2
Идентификатор : 3
Формат : DTS
Формат/Информация : Digital Theater Systems
Режим : 16
Параметр Endianness формата : Big
Идентификатор кодека : A_DTS
Продолжительность : 1 ч. 48 м.
Вид битрейта : Постоянный
Битрейт : 1509 Кбит/сек
Каналы : 6 каналов
Расположение каналов : Front: L C R, Side: L R, LFE
Частота : 48,0 КГц
Битовая глубина : 16 бит
Метод сжатия : С потерями
Размер потока : 1,15 Гбайт (10%)
Заголовок : AVO (Андрей Гаврилов)
Язык : Russian
Default : Нет
Forced : Нет

Аудио #3
Идентификатор : 4
Формат : DTS
Формат/Информация : Digital Theater Systems
Режим : 16
Параметр Endianness формата : Big
Идентификатор кодека : A_DTS
Продолжительность : 1 ч. 48 м.
Вид битрейта : Постоянный
Битрейт : 1509 Кбит/сек
Каналы : 6 каналов
Расположение каналов : Front: L C R, Side: L R, LFE
Частота : 48,0 КГц
Битовая глубина : 16 бит
Метод сжатия : С потерями
Размер потока : 1,15 Гбайт (10%)
Заголовок : Original
Язык : English
Default : Нет
Forced : Нет

Текст
Идентификатор : 5
Формат : UTF-8
Идентификатор кодека : S_TEXT/UTF8
Идентификатор кодека/Информация : UTF-8 Plain Text
Заголовок : английский
Язык : English
Default : Нет
Forced : Нет





_________________
Проголосуй за трекер Открытый торрент трекер - RUS-MEDIA.ORG

Проголосуй Открытый торрент трекер - RUS-MEDIA.ORG



реклама партнёра


Вернуться к началу
 Профиль Отправить личное сообщение  
 
   Похожие торренты   Автор   Торрент   Размер 
В этой теме нет новых непрочитанных сообщений. Незнакомец / The Stranger (Гильермо Амоедо) [Ужасы, Триллер, Драма, Детектив, 2014] WEB-DLRip, avo

Dracon

3 | 1

1.46 ГБ

В этой теме нет новых непрочитанных сообщений. Когда звонит незнакомец / When a Stranger Calls [Ужасы, триллер, 2006] WEB-DL 1080p, Dub

salma3

78 | 28

3.49 ГБ

В этой теме нет новых непрочитанных сообщений. Когда звонит незнакомец / When a Stranger Calls [Ужасы, триллер, 1979] BDRip 720p, Avo+Sub

salma3

15 | 0

6.98 ГБ

В этой теме нет новых непрочитанных сообщений. Идеальный парень / The Perfect Guy (Дэвид М. Розенталь) [триллер, драма, 2015] BDRip 720p, Mvo [iTunes]

Dracon

5 | 1

3.81 ГБ

В этой теме нет новых непрочитанных сообщений. Идеальный выбор / The Perfect Match [Комедия, мелодрама, 2016] BDRip 1080p, Mvo

salma3

5 | 2

7.95 ГБ

В этой теме нет новых непрочитанных сообщений. Идеальный голос 2 / Pitch Perfect 2 (Элизабет Бэнкс) [комедия, музыка, 2015] BDRip 1080p, Dub+Sub [Blu-ray CEE]

Dracon

112 | 10

12.42 ГБ

В этой теме нет новых непрочитанных сообщений. Незнакомец / The Stranger [боевик, триллер, 2010] ВDRip 1080р, Dvo+Sub

salma3

58 | 38

7.64 ГБ


Начать новую тему Ответить на тему  [ 1 сообщение ] 




Для Мосгорсуда, Роскомнадзора и рекламодателей:: mosgorsud-torrent[собачка]yandex.ru