Торрент файл
скачать торрент магнет ссылка Добавлен: 23 июл 2015, 11:51
Размер: 13.9 ГБ
Сидеров: 1
Личеров: 1
Автор

СообщениеДобавлено: 23 июл 2015, 11:51 

Не в сети
Зам. Админа
Аватара пользователя
Дата регистрации:
02 дек 2010, 12:39
Спасибо: 12623 / 214
Сообщения: 28012
Год выхода: 2015
Жанр: Драма,Комедия
Режиссер: Джон Мэдден
В ролях: Дев Патель, Мэгги Смит, Дэнни Махони, Ричард Гир, Селия Имри, Рональд Пикап, Дэвид Стрэтэйрн, Джуди Денч, Билл Найи, Диана Хардкэсл, Сабхраджоти Барат

О фильме:
Отель «Мэриголд» не был бы экзотическим, если бы не поселил двух незнакомых друг с другом людей в один номер; и он не стал бы лучшим, если бы из этого не произошло ничего хорошего.


Качество: BDRip [1080p]
Видео: MPEG4/ISO/AVC, 1920х804, 23,976 кадра/сек, 13,2 Мбит/сек
Аудио 1: Русский: АС3, 48 kHz, 6 ch, 448 kbps avg
Аудио 2: Русский: DTS, 48 kHz, 6 ch, 755 kbps avg
Аудио 3: Английский: DTS, 48 kHz , 6 ch, 1510 kbps avg
Субтитры: Pусские, Украинские, Английские
Продолжительность: 02:02:40
Перевод: Дублированный [лицензия]
Общее
Уникальный идентификатор : 235421686463295505527588978291800782561 (0xB11C914B12CF998483BDB8A226AFB6E1)
Полное имя : D:ТОРРЕНТЫThe.Second.Best.Exotic.Marigold.Hotel.2015.1080p.BluRay.mkv
Формат : Matroska
Версия формата : Version 2
Размер файла : 13,9 Гбайт
Продолжительность : 2 ч. 2 м.
Общий поток : 16,2 Мбит/сек
Дата кодирования : UTC 2015-07-22 21:12:02
Программа кодирования : mkvmerge v7.9.0 ('Birds') 64bit
Библиотека кодирования : libebml v1.3.1 + libmatroska v1.4.2

Видео
Идентификатор : 1
Формат : AVC
Формат/Информация : Advanced Video Codec
Профиль формата : High@L4.1
Параметр CABAC формата : Да
Параметр ReFrames формата : 5 кадров
Идентификатор кодека : V_MPEG4/ISO/AVC
Продолжительность : 2 ч. 2 м.
Битрейт : 13,2 Мбит/сек
Ширина : 1920 пикселей
Высота : 804 пикселя
Соотношение сторон : 2,40:1
Режим частоты кадров : Постоянный
Частота кадров : 23,976 кадра/сек
Цветовое пространство : YUV
Субдискретизация насыщенности : 4:2:0
Битовая глубина : 8 бит
Тип развёртки : Прогрессивная
Бит/(Пиксели*Кадры) : 0.356
Размер потока : 11,3 Гбайт (81%)
Библиотека кодирования : x264 core 146 r0+2584 6cf85c6 t_mod_Custom [8-bit@all ]
Настройки программы : cabac=1 / ref=5 / deblock=1:-3:-3 / analyse=0x3:0x133 / me=umh / subme=10 / psy=1 / fade_compensate=0.00 / psy_rd=1.00:0.00 / mixed_ref=1 / me_range=24 / chroma_me=1 / trellis=2 / 8x8dct=1 / cqm=0 / deadzone=21,11 / fast_pskip=0 / chroma_qp_offset=-2 / threads=12 / lookahead_threads=2 / sliced_threads=0 / nr=0 / decimate=0 / interlaced=0 / bluray_compat=0 / constrained_intra=0 / fgo=0 / bframes=9 / b_pyramid=2 / b_adapt=2 / b_bias=0 / direct=3 / weightb=1 / open_gop=0 / weightp=2 / keyint=250 / keyint_min=23 / scenecut=40 / intra_refresh=0 / rc_lookahead=60 / rc=crf / mbtree=0 / crf=17.5000 / qcomp=0.65 / qpmin=0:0:0 / qpmax=69:69:69 / qpstep=4 / vbv_maxrate=62500 / vbv_bufsize=78125 / crf_max=0.0 / nal_hrd=none / filler=0 / ip_ratio=1.40 / pb_ratio=1.30 / aq=3:0.80 / aq-sensitivity=10.00 / aq-factor=1.00:1.00:1.00 / aq2=0 / aq3=0
Язык : English
Default : Да
Forced : Нет
Коэффициенты матрицы : BT.709

Аудио #1
Идентификатор : 2
Формат : AC-3
Формат/Информация : Audio Coding 3
Расширение режима : CM (complete main)
Параметр Endianness формата : Big
Идентификатор кодека : A_AC3
Продолжительность : 2 ч. 2 м.
Вид битрейта : Постоянный
Битрейт : 448 Кбит/сек
Каналы : 6 каналов
Расположение каналов : Front: L C R, Side: L R, LFE
Частота : 48,0 КГц
Битовая глубина : 16 бит
Метод сжатия : С потерями
Размер потока : 393 Мбайт (3%)
Заголовок : EUR
Язык : Russian
Default : Да
Forced : Нет

Аудио #2
Идентификатор : 3
Формат : DTS
Формат/Информация : Digital Theater Systems
Идентификатор кодека : A_DTS
Продолжительность : 2 ч. 2 м.
Вид битрейта : Постоянный
Битрейт : 755 Кбит/сек
Каналы : 6 каналов
Расположение каналов : Front: L C R, Side: L R, LFE
Частота : 48,0 КГц
Битовая глубина : 24 бит
Метод сжатия : С потерями
Размер потока : 662 Мбайт (5%)
Заголовок : EUR
Язык : Russian
Default : Нет
Forced : Нет

Аудио #3
Идентификатор : 4
Формат : DTS
Формат/Информация : Digital Theater Systems
Идентификатор кодека : A_DTS
Продолжительность : 2 ч. 2 м.
Вид битрейта : Постоянный
Битрейт : 1510 Кбит/сек
Каналы : 6 каналов
Расположение каналов : Front: L C R, Side: L R, LFE
Частота : 48,0 КГц
Битовая глубина : 24 бит
Метод сжатия : С потерями
Размер потока : 1,29 Гбайт (9%)
Заголовок : Original
Язык : English
Default : Нет
Forced : Нет

Текст #1
Идентификатор : 5
Формат : UTF-8
Идентификатор кодека : S_TEXT/UTF8
Идентификатор кодека/Информация : UTF-8 Plain Text
Заголовок : Forced
Язык : Russian
Default : Да
Forced : Нет

Текст #2
Идентификатор : 6
Формат : UTF-8
Идентификатор кодека : S_TEXT/UTF8
Идентификатор кодека/Информация : UTF-8 Plain Text
Заголовок : Full
Язык : Russian
Default : Нет
Forced : Нет

Текст #3
Идентификатор : 7
Формат : UTF-8
Идентификатор кодека : S_TEXT/UTF8
Идентификатор кодека/Информация : UTF-8 Plain Text
Заголовок : Forced
Язык : Ukrainian
Default : Нет
Forced : Нет

Текст #4
Идентификатор : 8
Формат : UTF-8
Идентификатор кодека : S_TEXT/UTF8
Идентификатор кодека/Информация : UTF-8 Plain Text
Заголовок : Full
Язык : Ukrainian
Default : Нет
Forced : Нет

Текст #5
Идентификатор : 9
Формат : UTF-8
Идентификатор кодека : S_TEXT/UTF8
Идентификатор кодека/Информация : UTF-8 Plain Text
Заголовок : Forced
Язык : English
Default : Нет
Forced : Нет

Текст #6
Идентификатор : 10
Формат : UTF-8
Идентификатор кодека : S_TEXT/UTF8
Идентификатор кодека/Информация : UTF-8 Plain Text
Заголовок : Full
Язык : English
Default : Нет
Forced : Нет

Меню
00:00:00.000 : en:00:00:00.000
00:04:14.337 : en:00:04:14.337
00:09:35.867 : en:00:09:35.867
00:15:14.956 : en:00:15:14.956
00:19:20.659 : en:00:19:20.659
00:23:01.797 : en:00:23:01.797
00:28:20.032 : en:00:28:20.032
00:32:28.697 : en:00:32:28.697
00:36:00.784 : en:00:36:00.784
00:39:55.101 : en:00:39:55.101
00:44:39.093 : en:00:44:39.093
00:49:53.407 : en:00:49:53.407
00:53:55.732 : en:00:53:55.732
00:58:33.635 : en:00:58:33.635
01:02:55.271 : en:01:02:55.271
01:05:19.207 : en:01:05:19.207
01:10:42.488 : en:01:10:42.488
01:14:29.882 : en:01:14:29.882
01:17:48.372 : en:01:17:48.372
01:21:25.172 : en:01:21:25.172
01:26:55.627 : en:01:26:55.627
01:30:52.197 : en:01:30:52.197
01:35:17.670 : en:01:35:17.670
01:38:34.742 : en:01:38:34.742
01:44:33.976 : en:01:44:33.976
01:47:40.120 : en:01:47:40.120
01:52:02.925 : en:01:52:02.925
01:56:27.981 : en:01:56:27.981








реклама партнёра


Вернуться к началу
 Профиль  
 
   Похожие торренты   Автор   Торрент   Размер 
В этой теме нет новых непрочитанных сообщений. Отель «Мэриголд». Заселение продолжается / The Second Best Exotic Marigold Hotel (Джон Мэдден) [Драма, Комедия, 2015] BDRip, Dub [Лицензия]

Dracon

2 | 0

1.47 ГБ

В этой теме нет новых непрочитанных сообщений. Отель «Мэриголд». Заселение продолжается / The Second Best Exotic Marigold Hotel (Джон Мэдден) [Драма, Комедия, 2015] BDRip-AVC, Dub+Sub [лицензия]

Dracon

35 | 3

4.11 ГБ

В этой теме нет новых непрочитанных сообщений. Отель «Мэриголд». Заселение продолжается / The Second Best Exotic Marigold Hotel (Джон Мэдден) [Драма, Комедия, 2015] BDRip, Dub [Лицензия]

Dracon

1 | 0

2.18 ГБ

В этой теме нет новых непрочитанных сообщений. Отель «Мэриголд». Заселение продолжается / The Second Best Exotic Marigold Hotel (Джон Мэдден) [Драма, Комедия, 2015] BDRip 720p, Dub+Sub [лицензия]

Dracon

78 | 6

8.85 ГБ

В этой теме нет новых непрочитанных сообщений. Отель «Мэриголд». Заселение продолжается / The Second Best Exotic Marigold Hotel (Джон Мэдден) [Драма, Комедия, 2015] BDRip 1080p, Dub [iTunes]

Dracon

29 | 3

13.19 ГБ

В этой теме нет новых непрочитанных сообщений. Отель «Мэриголд». Заселение продолжается / The Second Best Exotic Marigold Hotel (Джон Мэдден) [Драма, Комедия, 2015] BDRip 720p, Dub [iTunes]

Dracon

52 | 8

8.13 ГБ

В этой теме нет новых непрочитанных сообщений. Отель «Мэриголд». Заселение продолжается / The Second Best Exotic Marigold Hotel (Джон Мэдден) [Драма, Комедия, 2015] HDRip, Dub [iTunes]

Dracon

49 | 2

2.05 ГБ


Начать новую тему Ответить на тему  [ 1 сообщение ] 




Для Мосгорсуда, Роскомнадзора и рекламодателей:: mosgorsud-torrent[собачка]yandex.ru