Торрент файл
скачать торрент магнет ссылка Добавлен: 19 июл 2015, 15:45
Размер: 3.6 ГБ
Сидеров: 47
Личеров: 4
Автор

СообщениеДобавлено: 19 июл 2015, 15:45 

Не в сети
Супермодератор
Аватара пользователя
Дата регистрации:
15 фев 2012, 16:44
Возраст: 28
Спасибо: 6928 / 2147
Сообщения: 52986
Год выпуска: 1973
Страна: Франция
Жанр: комедия, приключения
Продолжительность: 01:39:57
Перевод: авторский

Режиссёр: Жорж Лотнер

В ролях: Мирей Дарк, Мишель Константен, Жан-Пьер Марьель, Амиду, Мишель Галабрю, Жан Лефевр, Робер Дальбан, Рауль Сен-Ив, Арч Тейлор, Чарли Браво, Иисус Фернандез, Бернар Фонтен, Эль Кебир, Жан Луизи

Описание: Майор Блох, засветившийся израильский резидент, нашёл своё спасение во французском посольстве. С помощью его французского коллеги, капитана Ожье, его решают тайно переправить в Париж. Для этого неудачника запихивают в здоровый чемодан и под видом дипломатического багажа намереваются перевести самолётом в Европу. Однако в аэропорту забастовка, и план с каждым лишним часом катастрофически рушится... Тем более, в эту интригу с израильским агентом, случайно оказывается вовлечённой девушка Франсуаза, которая путешествует по Ближнему Востоку. А там где женщина, там...



Качество: BDRip 720p Сравнение с исходником
Формат: MKV
Видео: MPEG-4 AVC, 4664 Кбит/с, 1196х720, 24 кадра/с
Аудио 1: русский, AC3, 192 kbps, 2 ch, 48 kHz [авторский, Сергей Кузьмичёв]
Аудио 2: французский, AC3, 192 kbps, 2 ch, 48 kHz [оригинал]

Общее
Уникальный идентификатор : 176097762928434618456563987481819840414 (0x847B320ABCE865728EABEBFE72037F9E)
Полное имя : D:VideoЧемодан.1973.BDRip.720p.mkv
Формат : Matroska
Версия формата : Version 4 / Version 2
Размер файла : 3,60 Гбайт
Продолжительность : 1 ч. 39 м.
Общий поток : 5150 Кбит/сек
Название фильма : BDRip -- STarankov
Дата кодирования : UTC 2015-07-19 04:36:13
Программа кодирования : mkvmerge v8.2.0 ('World of Adventure') 64bit
Библиотека кодирования : libebml v1.3.1 + libmatroska v1.4.2
DURATION : 01:39:58.016000000
NUMBER_OF_FRAMES : 187438
NUMBER_OF_BYTES : 143952384
_STATISTICS_WRITING_APP : mkvmerge v8.2.0 ('World of Adventure') 64bit
_STATISTICS_WRITING_DATE_UTC : 2015-07-19 04:36:13
_STATISTICS_TAGS : BPS DURATION NUMBER_OF_FRAMES NUMBER_OF_BYTES

Видео
Идентификатор : 1
Формат : AVC
Формат/Информация : Advanced Video Codec
Профиль формата : High@L4.1
Параметр CABAC формата : Да
Параметр ReFrames формата : 9 кадров
Идентификатор кодека : V_MPEG4/ISO/AVC
Продолжительность : 1 ч. 39 м.
Битрейт : 4664 Кбит/сек
Ширина : 1196 пикселей
Высота : 720 пикселей
Соотношение сторон : 1,661
Режим частоты кадров : Постоянный
Частота кадров : 24,000 кадра/сек
Цветовое пространство : YUV
Субдискретизация насыщенности : 4:2:0
Битовая глубина : 8 бит
Тип развёртки : Прогрессивная
Бит/(Пиксели*Кадры) : 0.226
Размер потока : 3,26 Гбайт (91%)
Библиотека кодирования : x264 core 146 r2538 121396c
Настройки программы : cabac=1 / ref=9 / deblock=1:-3:-3 / analyse=0x3:0x113 / me=umh / subme=10 / psy=1 / psy_rd=1.00:0.15 / mixed_ref=1 / me_range=32 / chroma_me=1 / trellis=2 / 8x8dct=1 / cqm=0 / deadzone=21,11 / fast_pskip=1 / chroma_qp_offset=-3 / threads=6 / lookahead_threads=1 / sliced_threads=0 / nr=0 / decimate=1 / interlaced=0 / bluray_compat=0 / constrained_intra=0 / bframes=10 / b_pyramid=2 / b_adapt=2 / b_bias=0 / direct=1 / weightb=1 / open_gop=0 / weightp=2 / keyint=230 / keyint_min=23 / scenecut=40 / intra_refresh=0 / rc_lookahead=40 / rc=crf / mbtree=0 / crf=21.0 / qcomp=0.60 / qpmin=0 / qpmax=69 / qpstep=4 / vbv_maxrate=40000 / vbv_bufsize=50000 / crf_max=0.0 / nal_hrd=none / filler=0 / ip_ratio=1.40 / pb_ratio=1.30 / aq=1:1.00
Язык : French
Default : Да
Forced : Нет
DURATION : 01:39:57.625000000
NUMBER_OF_FRAMES : 143943
NUMBER_OF_BYTES : 3571860486
_STATISTICS_WRITING_APP : mkvmerge v8.2.0 ('World of Adventure') 64bit
_STATISTICS_WRITING_DATE_UTC : 2015-07-19 04:36:13
_STATISTICS_TAGS : BPS DURATION NUMBER_OF_FRAMES NUMBER_OF_BYTES

Аудио #1
Идентификатор : 2
Формат : AC-3
Формат/Информация : Audio Coding 3
Расширение режима : CM (complete main)
Параметр Endianness формата : Big
Идентификатор кодека : A_AC3
Продолжительность : 1 ч. 39 м.
Вид битрейта : Постоянный
Битрейт : 192 Кбит/сек
Каналы : 2 канала
Расположение каналов : Front: L R
Частота : 48,0 КГц
Битовая глубина : 16 бит
Метод сжатия : С потерями
Размер потока : 137 Мбайт (4%)
Заголовок : VO (одноголосый закадровый, Сергей Кузьмичёв)
Язык : Russian
Default : Да
Forced : Нет

Аудио #2
Идентификатор : 3
Формат : AC-3
Формат/Информация : Audio Coding 3
Расширение режима : CM (complete main)
Параметр Endianness формата : Big
Идентификатор кодека : A_AC3
Продолжительность : 1 ч. 39 м.
Вид битрейта : Постоянный
Битрейт : 192 Кбит/сек
Каналы : 2 канала
Расположение каналов : Front: L R
Частота : 48,0 КГц
Битовая глубина : 16 бит
Метод сжатия : С потерями
Размер потока : 137 Мбайт (4%)
Заголовок : Original
Язык : French
Default : Нет
Forced : Нет




_________________
Проголосуй за трекер Открытый торрент трекер - RUS-MEDIA.ORG

Проголосуй Открытый торрент трекер - RUS-MEDIA.ORG



реклама партнёра


Вернуться к началу
 Профиль Отправить личное сообщение  
 
   Похожие торренты   Автор   Торрент   Размер 
В этой теме нет новых непрочитанных сообщений. Дипломатический багаж / La Valise [комедия, приключения, 1973] BDRip 1080p, Avo

salma3

42 | 5

9.29 ГБ

В этой теме нет новых непрочитанных сообщений. Приключения раввина Якова / Les aventures de Rabbi Jacob [комедия, приключения, 1973] BDRip, Mvo

salma3

50 | 5

1.46 ГБ

В этой теме нет новых непрочитанных сообщений. Большая жратва / La grande bouffe [Комедия, драма, 1973] BDRip 720p, Mvo

salma3

1 | 10

12.18 ГБ

В этой теме нет новых непрочитанных сообщений. Американская ночь / La Nuit americaine [драма, мелодрама, комедия, 1973] BDRip 720p, Dvo+Sub

salma3

79 | 7

3.88 ГБ

В этой теме нет новых непрочитанных сообщений. Ссссссс / Sssssss [ужасы, фантастика, 1973] BDRip 720p, Avo

salma3

29 | 10

6.67 ГБ

В этой теме нет новых непрочитанных сообщений. Мотылек / Papillon [драма, криминал, биография, 1973] BDRip 720p, Mvo

salma3

0 | 0

7.9 ГБ

В этой теме нет новых непрочитанных сообщений. Западный мир / Westworld [Фантастика, боевик, вестерн, 1973] BDRip 720p, Mvo+Avo+Sub

salma3

55 | 3

3.71 ГБ


Начать новую тему Ответить на тему  [ 1 сообщение ] 




Для Мосгорсуда, Роскомнадзора и рекламодателей:: mosgorsud-torrent[собачка]yandex.ru
cron