Торрент файл
скачать торрент магнет ссылка Добавлен: 16 июл 2015, 21:01
Размер: 19.38 ГБ
Сидеров: 1
Личеров: 0
Автор

СообщениеДобавлено: 16 июл 2015, 21:01 

Не в сети
Зам. Админа
Аватара пользователя
Дата регистрации:
02 дек 2010, 12:39
Спасибо: 12620 / 214
Сообщения: 28049
Год выхода: 2015
Жанр: Боевик,Комедия
Режиссер: Энди Фикмен
В ролях: Кевин Джеймс, Рейни Родригес, Эдуардо Верастеги, Даниэлла Алонсо, Нил МакДонаф, Дэвид Генри, Д.Б. Вудсайд, Николас Туртурро, Лони Лав, Гари Валентайн

О фильме:
Охранник Пол отправляется в Лас-Вегас, чтобы посетить посвященную охране выставку вместе со своей дочерью Майей, прежде чем она уедет в колледж. На выставке Пол случайно узнает об ограблении и решает задержать преступников…

Качество: BDRemux [1080p]
Видео: MPEG4/ISO/AVC, 1920х1080, 23,976 fps, 25,9 Мбит/сек
Аудио 1: Русский: АС3, 48 kHz, 6 ch, 384 kbps avg
Аудио 2: Украинский: АС3, 48 kHz, 2 ch, 192 kbps avg
Аудио 3: Английский: DTS-MA, 48 kHz, 6 ch, 1510 kbps avg
Аудио 4: Английский: АС3, 48 kHz, 6 ch, 640 kbps avg - Commentary
Субтитры: Pусские, Английские
Дополнительно: Сохранены оригинальные чаптеры как на Blu-Ray
Продолжительность: 01:34:00
Перевод: Профессиональный (многоголосный) [iTunes]
Общее
Уникальный идентификатор : 237034554083545048212471446589955648909 (0xB25331CE72B48F779E09DBC2D2B02D8D)
Полное имя : D:ТОРРЕНТЫPaul Blart. Mall Cop 2. (2015) BDRemux 1080p.mkv
Формат : Matroska
Версия формата : Version 2
Размер файла : 19,4 Гбайт
Продолжительность : 1 ч. 34 м.
Режим общего битрейта : Переменный
Общий поток : 29,5 Мбит/сек
Название фильма : Paul Blart. Mall Cop 2. 2015
Дата кодирования : UTC 2015-07-16 10:43:04
Программа кодирования : mkvmerge v5.8.0 ('No Sleep / Pillow') built on Sep 2 2012 15:37:04
Библиотека кодирования : libebml v1.2.3 + libmatroska v1.3.0

Видео
Идентификатор : 1
Формат : AVC
Формат/Информация : Advanced Video Codec
Профиль формата : High@L4.1
Параметр CABAC формата : Да
Параметр ReFrames формата : 2 кадра
Параметр GOP формата : M=1, N=10
Идентификатор кодека : V_MPEG4/ISO/AVC
Продолжительность : 1 ч. 34 м.
Вид битрейта : Переменный
Битрейт : 25,9 Мбит/сек
Ширина : 1920 пикселей
Высота : 1080 пикселей
Соотношение сторон : 16:9
Режим частоты кадров : Постоянный
Частота кадров : 23,976 кадра/сек
Цветовое пространство : YUV
Субдискретизация насыщенности : 4:2:0
Битовая глубина : 8 бит
Тип развёртки : Прогрессивная
Бит/(Пиксели*Кадры) : 0.521
Размер потока : 17,0 Гбайт (88%)
Язык : English
Default : Да
Forced : Нет

Аудио #1
Идентификатор : 2
Формат : AC-3
Формат/Информация : Audio Coding 3
Расширение режима : CM (complete main)
Параметр Endianness формата : Big
Идентификатор кодека : A_AC3
Продолжительность : 1 ч. 34 м.
Вид битрейта : Постоянный
Битрейт : 384 Кбит/сек
Каналы : 6 каналов
Расположение каналов : Front: L C R, Side: L R, LFE
Частота : 48,0 КГц
Битовая глубина : 16 бит
Метод сжатия : С потерями
Размер потока : 258 Мбайт (1%)
Заголовок : MVO | iTunes
Язык : Russian
Default : Да
Forced : Нет

Аудио #2
Идентификатор : 3
Формат : AC-3
Формат/Информация : Audio Coding 3
Расширение режима : CM (complete main)
Параметр Endianness формата : Big
Идентификатор кодека : A_AC3
Продолжительность : 1 ч. 34 м.
Вид битрейта : Постоянный
Битрейт : 192 Кбит/сек
Каналы : 2 канала
Расположение каналов : Front: L R
Частота : 48,0 КГц
Битовая глубина : 16 бит
Метод сжатия : С потерями
Размер потока : 129 Мбайт (1%)
Заголовок : MVO | iTunes
Язык : Ukrainian
Default : Нет
Forced : Нет

Аудио #3
Идентификатор : 4
Формат : DTS
Формат/Информация : Digital Theater Systems
Профиль формата : MA / Core
Идентификатор кодека : A_DTS
Продолжительность : 1 ч. 34 м.
Вид битрейта : Переменный
Битрейт : 1804 Кбит/сек / 1510 Кбит/сек
Каналы : 6 каналов
Расположение каналов : Front: L C R, Side: L R, LFE
Частота : 48,0 КГц
Битовая глубина : 24 бит
Метод сжатия : Без потерь / Lossy
Заголовок : DTS-HD MA | License
Язык : English
Default : Нет
Forced : Нет

Аудио #4
Идентификатор : 5
Формат : AC-3
Формат/Информация : Audio Coding 3
Расширение режима : CM (complete main)
Параметр Endianness формата : Big
Идентификатор кодека : A_AC3
Продолжительность : 1 ч. 34 м.
Вид битрейта : Постоянный
Битрейт : 640 Кбит/сек
Каналы : 6 каналов
Расположение каналов : Front: L C R, Side: L R, LFE
Частота : 48,0 КГц
Битовая глубина : 16 бит
Метод сжатия : С потерями
Задержка видео : 24 мс.
Размер потока : 430 Мбайт (2%)
Заголовок : Commentary
Язык : English
Default : Нет
Forced : Нет

Текст #1
Идентификатор : 6
Формат : UTF-8
Идентификатор кодека : S_TEXT/UTF8
Идентификатор кодека/Информация : UTF-8 Plain Text
Заголовок : Full
Язык : Russian
Default : Нет
Forced : Нет

Текст #2
Идентификатор : 7
Формат : UTF-8
Идентификатор кодека : S_TEXT/UTF8
Идентификатор кодека/Информация : UTF-8 Plain Text
Заголовок : Full
Язык : English
Default : Нет
Forced : Нет

Меню
00:00:00.000 : en:Chapter 01
00:04:22.345 : en:Chapter 02
00:14:20.526 : en:Chapter 03
00:20:36.777 : en:Chapter 04
00:25:50.966 : en:Chapter 05
00:32:21.689 : en:Chapter 06
00:36:46.204 : en:Chapter 07
00:39:57.061 : en:Chapter 08
00:47:54.955 : en:Chapter 09
00:53:27.162 : en:Chapter 10
00:59:12.507 : en:Chapter 11
01:06:07.964 : en:Chapter 12
01:12:24.673 : en:Chapter 13
01:19:40.692 : en:Chapter 14
01:23:42.809 : en:Chapter 15
01:27:24.405 : en:Chapter 16








реклама партнёра


Вернуться к началу
 Профиль  
 
   Похожие торренты   Автор   Торрент   Размер 
В этой теме нет новых непрочитанных сообщений. Толстяк против всех / Paul Blart: Mall Cop 2 (Энди Фикмен) [Боевик, Комедия, 2015] HDRip, Mvo [iTunes]

Dracon

7 | 0

744.77 МБ

В этой теме нет новых непрочитанных сообщений. Толстяк против всех / Paul Blart: Mall Cop 2 (Энди Фикмен) [Боевик, Комедия, 2015] HDRip, Mvo [iTunes]

Dracon

12 | 1

1.45 ГБ

В этой теме нет новых непрочитанных сообщений. Толстяк против всех / Paul Blart: Mall Cop 2 (Энди Фикмен) [Боевик, Комедия, 2015] BDRip 1080p, Mvo+Sub [Лицензия]

Dracon

281 | 23

10.74 ГБ

В этой теме нет новых непрочитанных сообщений. Толстяк против всех / Paul Blart: Mall Cop 2 (Энди Фикмен) [Боевик, Комедия, 2015] BDRip 720p, Mvo+Sub [Лицензия]

Dracon

553 | 23

5.95 ГБ

В этой теме нет новых непрочитанных сообщений. Война против всех / War on Everyone [комедия, криминал, 2016] BDRemux 1080p, Dub+Sub [iTunes]

salma3

57 | 51

29.38 ГБ

В этой теме нет новых непрочитанных сообщений. Восхождение Юпитер / Jupiter Ascending (Энди Вачовски, Лана Вачовски) [фантастика, фэнтези, боевик, приключения, 2015] BDRemux 1080p, Dub+Sub [Лицензия]

Dracon

171 | 21

28.04 ГБ

В этой теме нет новых непрочитанных сообщений. Под маской / Beyond the Mask [Боевик, драма, 2015] BDRemux 1080p, Mvo [iTunes]

salma3

437 | 139

15.76 ГБ


Начать новую тему Ответить на тему  [ 1 сообщение ] 




Для Мосгорсуда, Роскомнадзора и рекламодателей:: mosgorsud-torrent[собачка]yandex.ru