Торрент файл
скачать торрент магнет ссылка Добавлен: 14 июл 2015, 20:43
Размер: 6.35 ГБ
Сидеров: 41
Личеров: 7
Автор

СообщениеДобавлено: 14 июл 2015, 20:43 

Не в сети
Супермодератор
Аватара пользователя
Дата регистрации:
15 фев 2012, 16:44
Возраст: 28
Спасибо: 6481 / 2129
Сообщения: 41129
Год выхода: 1990
Жанр: Боевик, драма, криминал
Режиссер: Чу Йинпинг
В ролях: Джеки Чан, Бэрри Вонг, Саммо Хунг, Энди Лау, Тони Люн Ка Фай, Чун Хсианг Ко, Чунг Хуа Тоу, Джек Као, Чуан Чен Йе, Ю Ванг

О фильме:
Полицейский Вонг Вэй, приехав издалека, обнаруживает своего дядю, старшего полицейского офицера, убитым при загадочных обстоятельствах. Поскольку найденные улики не только не помогли делу, но ещё больше его запутали, Вонг решает сесть в тюрьму, чтобы, завоевав доверие заключенных, найти убийцу.Однако дело принимает неожиданный оборот и Вонг оказывается замешанным в убийстве одного из тюремщиков, за что его приговаривают к смерти. Однако когда приговор вот-вот должен был быть приведён в исполнение, некто Вардер Тьен предлагает ему присоединиться к своему движению.


Страна: Тайвань
Студия: Spartan Home Entertainment, Blaine and Blake Ltd.
Продолжительность: 01:36:34
Перевод: Профессиональный многоголосый

Файл
Кодек: h.264
Качество: BDRip 1080p
Видео: MPEG-4 AVC, 1920x1040, 8 200 Кбит/с, 23.976 кадр/с
Звук:
Аудио #1: Русский ( AC3, 6ch, 448 Кбит/с, 48.0 KHz) Профессиональный многоголосый, закадровый (Союз Видео)
Аудио #2: Русский ( AC3, 2ch, 192 Кбит/с, 48.0 KHz) Профессиональный многоголосый, закадровый (Рен-Тв)
Аудио #3: Русский ( AC3, 2ch, 192 Кбит/с, 48.0 KHz) Авторский одноголосый, закадровый (Дохалов)
Аудио #4: Русский ( AC3, 2ch, 192 Кбит/с, 48.0 KHz) Авторский одноголосый, закадровый (Неизвестный)
Аудио #5: Китайский ( AC3, 2ch, 192 Кбит/с, 48.0 KHz)
Субтитры: Русские
General
Unique ID : 213689038906839975139726745097155164924 (0xA0C3030AAF8BA7698C8A184EBBDCBAFC)
Complete name : Island.Of.Fire.1991.JPN.BDRip.1080p.mkv
Format : Matroska
Format version : Version 4 / Version 2
File size : 6.35 GiB
Duration : 1h 36mn
Overall bit rate : 9 412 Kbps
Encoded date : UTC 2015-07-14 09:16:49
Writing application : mkvmerge v7.8.0 ('River Man') 64bit built on Mar 27 2015 16:31:37
Writing library : libebml v1.3.1 + libmatroska v1.4.2
DURATION : 01:36:21.792000000
NUMBER_OF_FRAMES : 180681
NUMBER_OF_BYTES : 138763008
_STATISTICS_WRITING_APP : mkvmerge v7.8.0 ('River Man') 64bit built on Mar 27 2015 16:31:37
_STATISTICS_WRITING_DATE_UTC : 2015-07-14 09:16:49
_STATISTICS_TAGS : BPS DURATION NUMBER_OF_FRAMES NUMBER_OF_BYTES
Attachment : Yes

Video
ID : 1
Format : AVC
Format/Info : Advanced Video Codec
Format profile : High@L4.1
Format settings, CABAC : Yes
Format settings, ReFrames : 4 frames
Codec ID : V_MPEG4/ISO/AVC
Duration : 1h 36mn
Bit rate : 8 200 Kbps
Width : 1 920 pixels
Height : 1 040 pixels
Display aspect ratio : 1.85:1
Frame rate mode : Constant
Frame rate : 23.976 fps
Color space : YUV
Chroma subsampling : 4:2:0
Bit depth : 8 bits
Scan type : Progressive
Bits/(Pixel*Frame) : 0.171
Stream size : 5.40 GiB (85%)
Title : Video
Writing library : x264 core 130 r2273 b3065e6
Encoding settings : cabac=1 / ref=4 / deblock=1:-1:-1 / analyse=0x3:0x113 / me=umh / subme=11 / psy=1 / psy_rd=1.00:0.15 / mixed_ref=1 / me_range=48 / chroma_me=1 / trellis=2 / 8x8dct=1 / cqm=0 / deadzone=21,11 / fast_pskip=0 / chroma_qp_offset=2 / threads=6 / lookahead_threads=1 / sliced_threads=0 / nr=0 / decimate=1 / interlaced=0 / bluray_compat=0 / constrained_intra=0 / bframes=10 / b_pyramid=2 / b_adapt=2 / b_bias=0 / direct=3 / weightb=1 / open_gop=1 / weightp=2 / keyint=250 / keyint_min=23 / scenecut=40 / intra_refresh=0 / rc_lookahead=50 / rc=2pass / mbtree=1 / bitrate=8200 / ratetol=1.0 / qcomp=0.69 / qpmin=0 / qpmax=69 / qpstep=4 / cplxblur=20.0 / qblur=0.5 / ip_ratio=1.40 / aq=1:1.00
Language : Chinese
Default : Yes
Forced : No

Audio #1
ID : 2
Format : AC-3
Format/Info : Audio Coding 3
Mode extension : CM (complete main)
Format settings, Endianness : Big
Codec ID : A_AC3
Duration : 1h 36mn
Bit rate mode : Constant
Bit rate : 448 Kbps
Channel(s) : 6 channels
Channel positions : Front: L C R, Side: L R, LFE
Sampling rate : 48.0 KHz
Bit depth : 16 bits
Compression mode : Lossy
Stream size : 309 MiB (5%)
Title : Audio 1 - Союз Видео
Language : Russian
Default : Yes
Forced : No

Audio #2
ID : 3
Format : AC-3
Format/Info : Audio Coding 3
Mode extension : CM (complete main)
Format settings, Endianness : Big
Codec ID : A_AC3
Duration : 1h 36mn
Bit rate mode : Constant
Bit rate : 192 Kbps
Channel(s) : 2 channels
Channel positions : Front: L R
Sampling rate : 48.0 KHz
Bit depth : 16 bits
Compression mode : Lossy
Stream size : 133 MiB (2%)
Title : Audio 2 - Рен-Тв
Language : Russian
Default : No
Forced : No

Audio #3
ID : 4
Format : AC-3
Format/Info : Audio Coding 3
Mode extension : CM (complete main)
Format settings, Endianness : Big
Codec ID : A_AC3
Duration : 1h 36mn
Bit rate mode : Constant
Bit rate : 192 Kbps
Channel(s) : 2 channels
Channel positions : Front: L R
Sampling rate : 48.0 KHz
Bit depth : 16 bits
Compression mode : Lossy
Stream size : 133 MiB (2%)
Title : Audio 3 - Дохалов
Language : Russian
Default : No
Forced : No

Audio #4
ID : 5
Format : AC-3
Format/Info : Audio Coding 3
Mode extension : CM (complete main)
Format settings, Endianness : Big
Codec ID : A_AC3
Duration : 1h 36mn
Bit rate mode : Constant
Bit rate : 192 Kbps
Channel(s) : 2 channels
Channel positions : Front: L R
Sampling rate : 48.0 KHz
Bit depth : 16 bits
Compression mode : Lossy
Stream size : 133 MiB (2%)
Title : Audio 4 - Неизвестный
Language : Russian
Default : No
Forced : No

Audio #5
ID : 6
Format : AC-3
Format/Info : Audio Coding 3
Mode extension : CM (complete main)
Format settings, Endianness : Big
Codec ID : A_AC3
Duration : 1h 36mn
Bit rate mode : Constant
Bit rate : 192 Kbps
Channel(s) : 2 channels
Channel positions : Front: L R
Sampling rate : 48.0 KHz
Bit depth : 16 bits
Compression mode : Lossy
Stream size : 133 MiB (2%)
Title : Audio 5
Language : Chinese
Default : No
Forced : No

Text
ID : 7
Format : UTF-8
Codec ID : S_TEXT/UTF8
Codec ID/Info : UTF-8 Plain Text
Language : Russian
Default : No
Forced : No



_________________
Проголосуй за трекер Открытый торрент трекер - RUS-MEDIA.ORG

Проголосуй Открытый торрент трекер - RUS-MEDIA.ORG



реклама партнёра


Вернуться к началу
 Профиль Отправить личное сообщение  
 
   Похожие торренты   Автор   Торрент   Размер 
В этой теме нет новых непрочитанных сообщений. На линии огня / In the Line of Fire [боевик, триллер, драма, криминал, детектив, 1993] BDRip 720p, Dub

salma3

47 | 10

7.75 ГБ

В этой теме нет новых непрочитанных сообщений. Ордер на смерть / Death Warrant [боевик, драма, криминал, детектив, 1990] BDRip 1080p, Dub+Mvo+Avo+Sub

salma3

41 | 40

7.49 ГБ

В этой теме нет новых непрочитанных сообщений. Огненные птицы / Fire Birds [Боевик, Приключения, 1990] BDRip 720p, Avo

salma3

32 | 0

3.38 ГБ

В этой теме нет новых непрочитанных сообщений. В поисках огня / Digging for Fire [драма, 2015] WEB-DLRip, Mvo [iTunes]

salma3

2138 | 173

1.37 ГБ

В этой теме нет новых непрочитанных сообщений. Мужество в бою / Courage Under Fire [Боевик, драма, военный, 1996] BDRip 1080p, Mvo+Avo

salma3

132 | 83

10.07 ГБ

В этой теме нет новых непрочитанных сообщений. Остров динозавров / Dinosaur Island (Матт Друммонд) [Детский, фантастика, приключения, семейный, 2014] BDRemux 1080p, avo

Dracon

0 | 0

16.25 ГБ

В этой теме нет новых непрочитанных сообщений. Часы отчаяния / Desperate Hours [триллер, драма, криминал, 1990] BDRip 1080p, Mvo

salma3

15 | 6

7.86 ГБ


Начать новую тему Ответить на тему  [ 1 сообщение ] 




Для Мосгорсуда, Роскомнадзора и рекламодателей:: mosgorsud-torrent[собачка]yandex.ru