Торрент файл
скачать торрент магнет ссылка Добавлен: 10 июл 2015, 16:10
Размер: 7.59 ГБ
Сидеров: 72
Личеров: 1
Автор

СообщениеДобавлено: 10 июл 2015, 16:10 

Не в сети
Супермодератор
Аватара пользователя
Дата регистрации:
15 фев 2012, 16:44
Возраст: 28
Спасибо: 6468 / 2129
Сообщения: 40699
Год выхода: 1989
Жанр: Мелодрама, драма
Режиссер: Залман Кинг
В ролях: Микки Рурк, Жаклин Биссет, Карре Отис, Ассумпта Серна, Брюс Гринвуд, Олег Видов, Милтон Гонсалвис, Дженс Питер, Антониу Мариу Силва да Силва, Пол Лэнд

О фильме:
Поступив на работу в юридическую фирму, Эмилия отправляется в Бразилию помочь завершить крупную сделку с недвижимостью. В Рио-де-Жанейро она встречается с Виллером — загадочным и очень сексуальным миллионером, который, используя свое колдовское очарование, пытается соблазнить невинную красотку.
Под сумасшедшие ритмы и краски карнавала, он распаляет в девушке вулкан неведомых ей ранее чувств и эротических фантазий, так и не решаясь на активные действия. Для него это привычная игра в любовь, но Эмилия не хочет и не может играть, она искренна, и это заставляет Виллера открыть ей свое сердце…



Страна: США
Студия: Vision PDG, Metro-Goldwyn-Mayer
Продолжительность: 01:45:15
Перевод: Дублированный, профессиональный многоголосый, авторский одноголосый

Файл
Кодек: h.264
Качество: BDRip 1080p
Видео: MPEG-4 AVC, 1920x1040, 8 200 Кбит/с, 23.976 кадр/с
Звук:
Аудио #1: Русский ( AC3, 2ch, 384 Кбит/с, 48.0 KHz) Дубляж
Аудио #2: Русский ( AC3, 2ch, 384 Кбит/с, 48.0 KHz) Авторский одноголосый, закадровый (А. Гаврилов)
Аудио #3: Русский ( AC3, 2ch, 192 Кбит/с, 48.0 KHz) Профессиональный многоголосый закадровый
Аудио #4: Русский ( AC3, 2ch, 192 Кбит/с, 48.0 KHz) Профессиональный многоголосый закадровый (Ren-TV)
Аудио #5: Русский ( AC3, 2ch, 192 Кбит/с, 48.0 KHz) Авторский одноголосый, закадровый (В.Горчаков)
Аудио #6: Русский ( AC3, 2ch, 192 Кбит/с, 48.0 KHz) Авторский одноголосый, закадровый (М.Иванов)
Аудио #7: Украинский ( AC3, 2ch, 192 Кбит/с, 48.0 KHz) Профессиональный многоголосый закадровый(ICTV)
Аудио #8: Английский ( AC3, 2ch, 384 Кбит/с, 48.0 KHz)
General
Unique ID : 205170637537512973401728851481498667238 (0x9A5A6D6DA44F31E6A584BE61D282C8E6)
Complete name : Wild.Orchid.1989.BDRip.1080p.mkv
Format : Matroska
Format version : Version 4 / Version 2
File size : 7.59 GiB
Duration : 1h 45mn
Overall bit rate : 10.3 Mbps
Encoded date : UTC 2015-07-06 19:55:20
Writing application : mkvmerge v7.8.0 ('River Man') 64bit built on Mar 27 2015 16:31:37
Writing library : libebml v1.3.1 + libmatroska v1.4.2
DURATION : 01:45:15.360000000
NUMBER_OF_FRAMES : 197355
NUMBER_OF_BYTES : 303137280
_STATISTICS_WRITING_APP : mkvmerge v7.8.0 ('River Man') 64bit built on Mar 27 2015 16:31:37
_STATISTICS_WRITING_DATE_UTC : 2015-07-06 19:55:20
_STATISTICS_TAGS : BPS DURATION NUMBER_OF_FRAMES NUMBER_OF_BYTES

Video
ID : 1
Format : AVC
Format/Info : Advanced Video Codec
Format profile : High@L4.1
Format settings, CABAC : Yes
Format settings, ReFrames : 4 frames
Codec ID : V_MPEG4/ISO/AVC
Duration : 1h 45mn
Nominal bit rate : 8 200 Kbps
Width : 1 920 pixels
Height : 1 040 pixels
Display aspect ratio : 1.85:1
Frame rate mode : Constant
Frame rate : 23.976 fps
Color space : YUV
Chroma subsampling : 4:2:0
Bit depth : 8 bits
Scan type : Progressive
Bits/(Pixel*Frame) : 0.171
Title : Video
Writing library : x264 core 130 r2273 b3065e6
Encoding settings : cabac=1 / ref=4 / deblock=1:-1:-1 / analyse=0x3:0x113 / me=umh / subme=11 / psy=1 / psy_rd=1.00:0.15 / mixed_ref=1 / me_range=32 / chroma_me=1 / trellis=2 / 8x8dct=1 / cqm=0 / deadzone=21,11 / fast_pskip=0 / chroma_qp_offset=2 / threads=6 / lookahead_threads=1 / sliced_threads=0 / nr=0 / decimate=1 / interlaced=0 / bluray_compat=0 / constrained_intra=0 / bframes=10 / b_pyramid=2 / b_adapt=2 / b_bias=0 / direct=3 / weightb=1 / open_gop=1 / weightp=2 / keyint=250 / keyint_min=23 / scenecut=40 / intra_refresh=0 / rc_lookahead=50 / rc=2pass / mbtree=1 / bitrate=8200 / ratetol=1.0 / qcomp=0.69 / qpmin=0 / qpmax=69 / qpstep=4 / cplxblur=20.0 / qblur=0.5 / ip_ratio=1.40 / aq=1:1.00
Language : English
Default : Yes
Forced : No

Audio #1
ID : 2
Format : AC-3
Format/Info : Audio Coding 3
Mode extension : CM (complete main)
Format settings, Endianness : Big
Codec ID : A_AC3
Duration : 1h 45mn
Bit rate mode : Constant
Bit rate : 384 Kbps
Channel(s) : 2 channels
Channel positions : Front: L R
Sampling rate : 48.0 KHz
Bit depth : 16 bits
Compression mode : Lossy
Stream size : 289 MiB (4%)
Title : Audio 1
Language : Russian
Default : Yes
Forced : No

Audio #2
ID : 3
Format : AC-3
Format/Info : Audio Coding 3
Codec ID : A_AC3
Duration : 1h 45mn
Channel(s) : 2 channels
Sampling rate : 48.0 KHz
Compression mode : Lossy
Title : Audio 2
Language : Russian
Default : No
Forced : No

Audio #3
ID : 4
Format : AC-3
Format/Info : Audio Coding 3
Mode extension : CM (complete main)
Format settings, Endianness : Big
Codec ID : A_AC3
Duration : 1h 45mn
Bit rate mode : Constant
Bit rate : 192 Kbps
Channel(s) : 2 channels
Channel positions : Front: L R
Sampling rate : 48.0 KHz
Bit depth : 16 bits
Compression mode : Lossy
Stream size : 145 MiB (2%)
Title : Audio 3
Language : Russian
Default : No
Forced : No

Audio #4
ID : 5
Format : AC-3
Format/Info : Audio Coding 3
Mode extension : CM (complete main)
Format settings, Endianness : Big
Codec ID : A_AC3
Duration : 1h 45mn
Bit rate mode : Constant
Bit rate : 192 Kbps
Channel(s) : 2 channels
Channel positions : Front: L R
Sampling rate : 48.0 KHz
Bit depth : 16 bits
Compression mode : Lossy
Stream size : 145 MiB (2%)
Title : Audio 4
Language : Russian
Default : No
Forced : No

Audio #5
ID : 6
Format : AC-3
Format/Info : Audio Coding 3
Mode extension : CM (complete main)
Format settings, Endianness : Big
Codec ID : A_AC3
Duration : 1h 45mn
Bit rate mode : Constant
Bit rate : 192 Kbps
Channel(s) : 2 channels
Channel positions : Front: L R
Sampling rate : 48.0 KHz
Bit depth : 16 bits
Compression mode : Lossy
Stream size : 145 MiB (2%)
Title : Audio 5
Language : Russian
Default : No
Forced : No

Audio #6
ID : 7
Format : AC-3
Format/Info : Audio Coding 3
Mode extension : CM (complete main)
Format settings, Endianness : Big
Codec ID : A_AC3
Duration : 1h 45mn
Bit rate mode : Constant
Bit rate : 192 Kbps
Channel(s) : 2 channels
Channel positions : Front: L R
Sampling rate : 48.0 KHz
Bit depth : 16 bits
Compression mode : Lossy
Stream size : 145 MiB (2%)
Title : Audio 6
Language : Russian
Default : No
Forced : No

Audio #7
ID : 8
Format : AC-3
Format/Info : Audio Coding 3
Mode extension : CM (complete main)
Format settings, Endianness : Big
Codec ID : A_AC3
Duration : 1h 45mn
Bit rate mode : Constant
Bit rate : 192 Kbps
Channel(s) : 2 channels
Channel positions : Front: L R
Sampling rate : 48.0 KHz
Bit depth : 16 bits
Compression mode : Lossy
Stream size : 145 MiB (2%)
Title : Audio 7
Language : Ukrainian
Default : No
Forced : No

Audio #8
ID : 9
Format : AC-3
Format/Info : Audio Coding 3
Codec ID : A_AC3
Duration : 1h 45mn
Channel(s) : 2 channels
Sampling rate : 48.0 KHz
Compression mode : Lossy
Title : Audio 8
Language : English
Default : No
Forced : No

Text
ID : 10
Format : PGS
Muxing mode : zlib
Codec ID : S_HDMV/PGS
Codec ID/Info : The same subtitle format used on BDs/HD-DVDs
Language : Russian
Default : Yes
Forced : No

Menu
00:00:00.000 : en:Chapter 1
00:14:58.590 : en:Chapter 2
00:28:47.600 : en:Chapter 3
00:41:55.949 : en:Chapter 4
00:59:03.215 : en:Chapter 5
01:09:50.263 : en:Chapter 6
01:19:37.001 : en:Chapter 7
01:31:53.709 : en:Chapter 8



_________________
Проголосуй за трекер Открытый торрент трекер - RUS-MEDIA.ORG

Проголосуй Открытый торрент трекер - RUS-MEDIA.ORG



реклама партнёра


Вернуться к началу
 Профиль Отправить личное сообщение  
 
   Похожие торренты   Автор   Торрент   Размер 
В этой теме нет новых непрочитанных сообщений. Дикая орхидея / Wild Orchid [Мелодрама, драма, 1989] Blu-Ray Remux 1080p, Dub+Mvo+Avo+Sub

salma3

4 | 4

24.43 ГБ

В этой теме нет новых непрочитанных сообщений. Дикая орхидея / Wild Orchid [драма, мелодрама, 1989] BDRip 720p, Dub+Mvo+Avo+Sub

salma3

35 | 3

9.7 ГБ

В этой теме нет новых непрочитанных сообщений. Дикая орхидея 2: Два оттенка грусти / Wild Orchid II: Two Shades of Blue [драма, мелодрама, 1991] WEBRip 1080p, Mvo

salma3

202 | 117

8.36 ГБ

В этой теме нет новых непрочитанных сообщений. Дикая / Wild (Жан-Марк Валле) [Драма, биография, 2014] BDRip 1080p, mvo+sub

Dracon

5 | 3

12.89 ГБ

В этой теме нет новых непрочитанных сообщений. Дикая / Wild (Жан-Марк Валле) [Драма, биография, 2014] BDRip 1080p, Dub+Sub [Лицензия]

Dracon

552 | 41

13.43 ГБ

В этой теме нет новых непрочитанных сообщений. Дикая / Wild (Жан-Марк Валле) [2014, Драма, биография, BDRip] Sub

Nickolas3435

577 | 115

1.49 ГБ

В этой теме нет новых непрочитанных сообщений. Дикая / Wild (Жан-Марк Валле) [Драма, биография, 2014] BDRip 720p, dvo+sub

Dracon

169 | 4

6.19 ГБ


Начать новую тему Ответить на тему  [ 1 сообщение ] 




Для Мосгорсуда, Роскомнадзора и рекламодателей:: mosgorsud-torrent[собачка]yandex.ru