Торрент файл
скачать торрент магнет ссылка Добавлен: 09 июл 2015, 19:51
Размер: 5.54 ГБ
Сидеров: 77
Личеров: 7
Автор

СообщениеДобавлено: 09 июл 2015, 19:51 

Не в сети
Супермодератор
Аватара пользователя
Дата регистрации:
15 фев 2012, 16:44
Возраст: 28
Спасибо: 6920 / 2147
Сообщения: 52803
Год выхода: 1967
Жанр: Комедия
Режиссер: Серж Корбер
В ролях: Дани Каррель, Жан Лефевр, Бернар Блие, Робер Дальбан, Мишлин Люссьони, Фернан Берсе, Жан Карме, Альбер Реми, Бернадетт Лафон, Андре Пусс

О фильме:
Гоби – объект шуток в маленькой провинциальной деревне. Всех забавляет, что он мечтает побывать в самом романтическом городе – Париже. Для того, чтобы очередной раз над ним подшутить, насмешники кладут спящего Гоби в машину, которая должна отвезти его к мечте. Проснувшись, Гоби не пониманет, как он здесь очутился. Он начинает свое путешествие по своей мечте, и встречает на своем пути множество друзей.



Страна: Франция
Студия: Gaumont International
Продолжительность: 01:28:57
Перевод: Профессиональный многоголосый

Файл
Кодек: h.264
Качество: BDRip 1080p
Видео: MPEG-4 AVC, 1920x816, 8 200 Кбит/с, 24.000кадр/с
Звук:
Аудио #1: Русский ( AC3, 2ch, 256 Кбит/с, 48.0 KHz) Профессиональный многоголосый закадровый
Аудио #2: Французский ( AC3, 2ch, 448 Кбит/с, 48.0 KHz)
Субтитры: Французские
General
Unique ID : 188179895322421107566335253389379621109 (0x8D9221291854EB469BA62F2FE8AFD0F5)
Complete name : Un.Idiot.A.Paris.1967.BDRip.1080p.mkv
Format : Matroska
Format version : Version 4 / Version 2
File size : 5.54 GiB
Duration : 1h 28mn
Overall bit rate : 8 920 Kbps
Encoded date : UTC 2015-07-09 14:57:33
Writing application : mkvmerge v7.8.0 ('River Man') 64bit built on Mar 27 2015 16:31:37
Writing library : libebml v1.3.1 + libmatroska v1.4.2
DURATION : 01:28:57.024000000
NUMBER_OF_FRAMES : 166782
NUMBER_OF_BYTES : 298873344
_STATISTICS_WRITING_APP : mkvmerge v7.8.0 ('River Man') 64bit built on Mar 27 2015 16:31:37
_STATISTICS_WRITING_DATE_UTC : 2015-07-09 14:57:33
_STATISTICS_TAGS : BPS DURATION NUMBER_OF_FRAMES NUMBER_OF_BYTES

Video
ID : 1
Format : AVC
Format/Info : Advanced Video Codec
Format profile : High@L4.1
Format settings, CABAC : Yes
Format settings, ReFrames : 4 frames
Codec ID : V_MPEG4/ISO/AVC
Duration : 1h 28mn
Bit rate : 8 200 Kbps
Width : 1 920 pixels
Height : 816 pixels
Display aspect ratio : 2.35:1
Frame rate mode : Constant
Frame rate : 24.000 fps
Color space : YUV
Chroma subsampling : 4:2:0
Bit depth : 8 bits
Scan type : Progressive
Bits/(Pixel*Frame) : 0.218
Stream size : 4.99 GiB (90%)
Title : Video
Writing library : x264 core 130 r2273 b3065e6
Encoding settings : cabac=1 / ref=4 / deblock=1:-1:-1 / analyse=0x3:0x113 / me=umh / subme=11 / psy=1 / psy_rd=1.00:0.15 / mixed_ref=1 / me_range=32 / chroma_me=1 / trellis=2 / 8x8dct=1 / cqm=0 / deadzone=21,11 / fast_pskip=0 / chroma_qp_offset=2 / threads=6 / lookahead_threads=1 / sliced_threads=0 / nr=0 / decimate=1 / interlaced=0 / bluray_compat=0 / constrained_intra=0 / bframes=10 / b_pyramid=2 / b_adapt=2 / b_bias=0 / direct=3 / weightb=1 / open_gop=1 / weightp=2 / keyint=250 / keyint_min=23 / scenecut=40 / intra_refresh=0 / rc_lookahead=50 / rc=2pass / mbtree=1 / bitrate=8200 / ratetol=1.0 / qcomp=0.69 / qpmin=0 / qpmax=69 / qpstep=4 / cplxblur=20.0 / qblur=0.5 / ip_ratio=1.40 / aq=1:1.00
Language : French
Default : Yes
Forced : No

Audio #1
ID : 2
Format : AC-3
Format/Info : Audio Coding 3
Mode extension : CM (complete main)
Format settings, Endianness : Big
Codec ID : A_AC3
Duration : 1h 28mn
Bit rate mode : Constant
Bit rate : 256 Kbps
Channel(s) : 2 channels
Channel positions : Front: L R
Sampling rate : 48.0 KHz
Bit depth : 16 bits
Compression mode : Lossy
Stream size : 163 MiB (3%)
Title : Audio 1
Language : Russian
Default : Yes
Forced : No

Audio #2
ID : 3
Format : AC-3
Format/Info : Audio Coding 3
Mode extension : CM (complete main)
Format settings, Endianness : Big
Codec ID : A_AC3
Duration : 1h 28mn
Bit rate mode : Constant
Bit rate : 448 Kbps
Channel(s) : 2 channels
Channel positions : Front: L R
Sampling rate : 48.0 KHz
Bit depth : 16 bits
Compression mode : Lossy
Stream size : 285 MiB (5%)
Title : Audio 2
Language : French
Default : No
Forced : No

Text
ID : 4
Format : PGS
Muxing mode : zlib
Codec ID : S_HDMV/PGS
Codec ID/Info : The same subtitle format used on BDs/HD-DVDs
Language : French
Default : Yes
Forced : No

Menu
00:00:00.000 : en:Chapter 1
00:07:04.915 : en:Chapter 2
00:15:32.625 : en:Chapter 3
00:21:50.125 : en:Chapter 4
00:29:34.790 : en:Chapter 5
00:37:37.250 : en:Chapter 6
00:46:23.916 : en:Chapter 7
00:54:13.791 : en:Chapter 8
01:00:40.708 : en:Chapter 9
01:06:50.666 : en:Chapter 10
01:13:55.166 : en:Chapter 11
01:22:18.625 : en:Chapter 12



_________________
Проголосуй за трекер Открытый торрент трекер - RUS-MEDIA.ORG

Проголосуй Открытый торрент трекер - RUS-MEDIA.ORG



реклама партнёра


Вернуться к началу
 Профиль Отправить личное сообщение  
 
   Похожие торренты   Автор   Торрент   Размер 
В этой теме нет новых непрочитанных сообщений. Идиот в Париже / Un idiot a Paris [комедия, 1967] BDRip-AVC, Mvo

salma3

13 | 5

1.81 ГБ

В этой теме нет новых непрочитанных сообщений. Идиот в Париже / Un idiot a Paris [комедия, 1967] BDRip 720p, Mvo+Sub

salma3

52 | 0

2.89 ГБ

В этой теме нет новых непрочитанных сообщений. Пуэрториканцы в Париже / Puerto Ricans in Paris [комедия, 2015] BDRip, Mvo [iTunes]

salma3

747 | 70

1.42 ГБ

В этой теме нет новых непрочитанных сообщений. Американский оборотень в Париже / An American werewolf in Paris [Ужасы, комедия, 1997] DVDRip, Mvo

salma3

51 | 13

1.46 ГБ

В этой теме нет новых непрочитанных сообщений. Colmax - Ночь в Париже / A Night In Paris (2017) WEB-DLRip

salma3

26 | 3

1.37 ГБ

В этой теме нет новых непрочитанных сообщений. Красотки в Париже / Sous les jupes des filles [комедия, 2014] BDRip 1080p, Mvo

salma3

39 | 10

7.36 ГБ

В этой теме нет новых непрочитанных сообщений. Michelle Wild - Страстное танго в Париже / Private Black Label 21: Lust Tango In Paris (2001) DVDRip

salma3

12 | 3

282.31 МБ


Начать новую тему Ответить на тему  [ 1 сообщение ] 




Для Мосгорсуда, Роскомнадзора и рекламодателей:: mosgorsud-torrent[собачка]yandex.ru
cron