Торрент файл
скачать торрент магнет ссылка Добавлен: 28 июн 2015, 20:49
Размер: 14.47 ГБ
Сидеров: 37
Личеров: 1
Автор

СообщениеДобавлено: 28 июн 2015, 20:49 

Не в сети
Супермодератор
Аватара пользователя
Дата регистрации:
15 фев 2012, 16:44
Возраст: 28
Спасибо: 6640 / 2146
Сообщения: 45613
Год выпуска: 1990
Страна: Франция
Жанр: драма
Продолжительность: 01:56:56
Перевод: профессиональный многоголосый

Режиссёр: Клод Лелуш

В ролях: Жерар Ланвен, Патрик Шенэ, Анни Жирардо, Мари-Софи Л., Франсис Юстер, Венсан Линдон, Филипп Леотар, Жерар Дармон, Поль Пребуа, Серж Реджани

Описание: Что происходит, если не хватает одного часа? Мы опаздываем на самолёт, упускаем сделку, так и не встречаемся с женщиной своей мечты. К тому же за окном полнолуние: отношения натянуты, а плохое настроение распространяется как эпидемия, жизнь теряет яркость, судьбы больше не пересекаются в нужных местах. Секунда может изменить жизнь. Представляете, что может произойти за час!...



Качество: BDRip 1080p Сравнение с исходником
Формат: MKV
Видео: MPEG-4 AVC, 15.6 Mбит/с, 1920x816, 24 кадра/с
Аудио 1: русский, AC3, 256 kbps, 2 ch, 48 kHz [профессиональный многоголосый]
Аудио 2: французский, DTS, 1509 kbps, 2 ch, 48 kHz [оригинал]

Общее
Уникальный идентификатор : 224324348043376260052057777434774656303 (0xA8C34C442B768CC9A0DF360FDE96D52F)
Полное имя : D:VideoБывают дни. Бывают ночи.1990.BDRip.1080p.mkv
Формат : Matroska
Версия формата : Version 4 / Version 2
Размер файла : 14,5 Гбайт
Продолжительность : 1 ч. 56 м.
Общий поток : 17,7 Мбит/сек
Название фильма : BDRip -- STarankov
Дата кодирования : UTC 2015-06-28 04:51:27
Программа кодирования : mkvmerge v7.9.0 ('Birds') 64bit
Библиотека кодирования : libebml v1.3.1 + libmatroska v1.4.2
_STATISTICS_WRITING_APP : mkvmerge v7.9.0 ('Birds') 64bit
_STATISTICS_WRITING_DATE_UTC : 2015-06-28 04:51:27
_STATISTICS_TAGS : BPS DURATION NUMBER_OF_FRAMES NUMBER_OF_BYTES
DURATION : 01:56:56.459000000
NUMBER_OF_FRAMES : 657793
NUMBER_OF_BYTES : 1323480100

Видео
Идентификатор : 1
Формат : AVC
Формат/Информация : Advanced Video Codec
Профиль формата : High@L4.1
Параметр CABAC формата : Да
Параметр ReFrames формата : 4 кадра
Идентификатор кодека : V_MPEG4/ISO/AVC
Продолжительность : 1 ч. 56 м.
Битрейт : 15,6 Мбит/сек
Ширина : 1920 пикселей
Высота : 816 пикселей
Соотношение сторон : 2,35:1
Режим частоты кадров : Постоянный
Частота кадров : 24,000 кадра/сек
Цветовое пространство : YUV
Субдискретизация насыщенности : 4:2:0
Битовая глубина : 8 бит
Тип развёртки : Прогрессивная
Бит/(Пиксели*Кадры) : 0.415
Размер потока : 12,7 Гбайт (88%)
Библиотека кодирования : x264 core 146 r2538 121396c
Настройки программы : cabac=1 / ref=4 / deblock=1:-1:-1 / analyse=0x3:0x113 / me=umh / subme=10 / psy=1 / psy_rd=1.00:0.15 / mixed_ref=1 / me_range=32 / chroma_me=1 / trellis=2 / 8x8dct=1 / cqm=0 / deadzone=21,11 / fast_pskip=1 / chroma_qp_offset=-3 / threads=6 / lookahead_threads=1 / sliced_threads=0 / nr=0 / decimate=1 / interlaced=0 / bluray_compat=0 / constrained_intra=0 / bframes=11 / b_pyramid=2 / b_adapt=2 / b_bias=0 / direct=1 / weightb=1 / open_gop=0 / weightp=2 / keyint=230 / keyint_min=23 / scenecut=40 / intra_refresh=0 / rc_lookahead=40 / rc=crf / mbtree=0 / crf=20.5 / qcomp=0.60 / qpmin=0 / qpmax=69 / qpstep=4 / vbv_maxrate=40000 / vbv_bufsize=50000 / crf_max=0.0 / nal_hrd=none / filler=0 / ip_ratio=1.40 / pb_ratio=1.30 / aq=1:1.00
Язык : French
Default : Да
Forced : Нет
DURATION : 01:56:56.459000000
NUMBER_OF_FRAMES : 168395
NUMBER_OF_BYTES : 13990028163
_STATISTICS_WRITING_APP : mkvmerge v7.9.0 ('Birds') 64bit
_STATISTICS_WRITING_DATE_UTC : 2015-06-28 04:51:27
_STATISTICS_TAGS : BPS DURATION NUMBER_OF_FRAMES NUMBER_OF_BYTES

Аудио #1
Идентификатор : 2
Формат : AC-3
Формат/Информация : Audio Coding 3
Расширение режима : CM (complete main)
Параметр Endianness формата : Big
Идентификатор кодека : A_AC3
Продолжительность : 1 ч. 56 м.
Вид битрейта : Постоянный
Битрейт : 256 Кбит/сек
Каналы : 2 канала
Расположение каналов : Front: L R
Частота : 48,0 КГц
Битовая глубина : 16 бит
Метод сжатия : С потерями
Размер потока : 214 Мбайт (1%)
Заголовок : MVO
Язык : Russian
Default : Да
Forced : Нет

Аудио #2
Идентификатор : 3
Формат : DTS
Формат/Информация : Digital Theater Systems
Режим : 16
Параметр Endianness формата : Big
Идентификатор кодека : A_DTS
Продолжительность : 1 ч. 56 м.
Вид битрейта : Постоянный
Битрейт : 1509 Кбит/сек
Каналы : 2 канала
Расположение каналов : Front: L R
Частота : 48,0 КГц
Битовая глубина : 24 бит
Метод сжатия : С потерями
Размер потока : 1,23 Гбайт (9%)
Заголовок : Original
Язык : French
Default : Нет
Forced : Нет




_________________
Проголосуй за трекер Открытый торрент трекер - RUS-MEDIA.ORG

Проголосуй Открытый торрент трекер - RUS-MEDIA.ORG



реклама партнёра


Вернуться к началу
 Профиль Отправить личное сообщение  
 
   Похожие торренты   Автор   Торрент   Размер 
В этой теме нет новых непрочитанных сообщений. Под покровом ночи / В холоде ночи / In The Cold Of The Night [Триллер, мелодрама, детектив, 1990] DVDRip, Avo

salma3

21 | 7

1.45 ГБ

В этой теме нет новых непрочитанных сообщений. Несколько дней со мной / Quelques jours avec moi [драма, мелодрама, комедия, 1988] BDRip 1080p, Mvo

salma3

8 | 3

15.64 ГБ

В этой теме нет новых непрочитанных сообщений. Закон ночи / Live by Night [Драма, криминал, 2016] BDRip 1080p, Dub+Sub [Лицензия]

salma3

38 | 17

15.11 ГБ

В этой теме нет новых непрочитанных сообщений. Дни и ночи / Days and Nights (Кристиан Камарго) [Драма, комедия, 2013] BDRip 1080p, Mvo

Dracon

9 | 1

6.67 ГБ

В этой теме нет новых непрочитанных сообщений. Под покровом ночи / Nocturnal Animals [триллер, драма, 2016] BDRip 1080p, Dub+Sub [Лицензия]

salma3

697 | 588

13.63 ГБ

В этой теме нет новых непрочитанных сообщений. Несколько дней со мной / Quelques jours avec moi [драма, мелодрама, комедия, 1988] BDRip 720p, Mvo

salma3

9 | 3

6.39 ГБ

В этой теме нет новых непрочитанных сообщений. Повелитель Мух / Lord Of The Flies [триллер, драма, приключения, 1990] BDRip 1080p, Mvo+Sub

salma3

140 | 25

7.77 ГБ


Начать новую тему Ответить на тему  [ 1 сообщение ] 




Для Мосгорсуда, Роскомнадзора и рекламодателей:: mosgorsud-torrent[собачка]yandex.ru