Торрент файл
скачать торрент магнет ссылка Добавлен: 28 июн 2015, 20:48
Размер: 4.35 ГБ
Сидеров: 55
Личеров: 5
Автор

СообщениеДобавлено: 28 июн 2015, 20:48 

Не в сети
Супермодератор
Аватара пользователя
Дата регистрации:
15 фев 2012, 16:44
Возраст: 28
Спасибо: 6481 / 2129
Сообщения: 41129
Год выпуска: 1994
Страна: США
Жанр: мелодрама, комедия, семейный
Продолжительность: 01:22:27
Перевод: профессиональный многоголосый, профессиональный двухголосый, авторский

Режиссёр: Пенелопа Сфирис

В ролях: Тревис Тедфорд, Баг Холл, Бриттани Эштон Холмс, Мэл Брукс, Вупи Голдберг, Дэрил Ханна, Риба МакИнтайр, Эшли Олсен, Мэри-Кейт Олсен, Кевин Джамал Вудс, Джордан Варкол, Захари Мэбри, Росс Бэгли, Кортленд Мид, Сэм Салетта, Блейк Джереми Коллинз, Блейк МакИвер Юинг, Джульетт Брюэр, Лиа Томпсон, Дональд Трамп, Джордж Уэндт

Описание: Большинство героев этой картины — дети. Мальчики организовали свой клуб настоящих мужчин-женоненавистников. Поэтому любой, кто встречается с девочкой, в их глазах — преступник, предатель и негодяй. Они очень сурово обошлись с одним из членов своего клуба только потому, что тот ходил к девочке на свидания. Девочки, в свою очередь, ничего хорошего в мальчиках тоже найти не могут и предают их суровому осуждению...



Качество: BDRip 720p Сравнение с исходником
Формат: MKV
Видео: MPEG-4 AVC, 6179 Кбит/с, 1280x694, 23,976 кадра/с
Аудио 1: русский, AC3, 192 kbps, 2 ch, 48 kHz [профессиональный многоголосый, Премьер Видео]
Аудио 2: русский, AC3, 192 kbps, 2 ch, 48 kHz [профессиональный двухголосый, HTB+]
Аудио 3: русский, AC3, 192 kbps, 2 ch, 48 kHz [авторский, Сергей Визгунов]
Аудио 4: русский, AC3, 192 kbps, 2 ch, 48 kHz [авторский, Леонид Володарский]
Аудио 5: английский, AC3, 448 kbps, 5 ch, 48 kHz [оригинал]
Субтитры: английские (для слабослышащих)

Общее
Уникальный идентификатор : 189233696625295489757840996828004655906 (0x8E5D15937D89BAA99F735CABEFC6A322)
Полное имя : D:VideoМаленькие негодяи.1994.BDRip.720p.mkv
Формат : Matroska
Версия формата : Version 4 / Version 2
Размер файла : 4,35 Гбайт
Продолжительность : 1 ч. 22 м.
Общий поток : 7545 Кбит/сек
Название фильма : BDRip -- STarankov
Дата кодирования : UTC 2015-06-28 06:10:44
Программа кодирования : mkvmerge v7.9.0 ('Birds') 64bit
Библиотека кодирования : libebml v1.3.1 + libmatroska v1.4.2
_STATISTICS_WRITING_APP : mkvmerge v7.9.0 ('Birds') 64bit
_STATISTICS_WRITING_DATE_UTC : 2015-06-28 06:10:44
_STATISTICS_TAGS : BPS DURATION NUMBER_OF_FRAMES NUMBER_OF_BYTES
DURATION : 01:19:13.247000000
NUMBER_OF_FRAMES : 1132
NUMBER_OF_BYTES : 33125

Видео
Идентификатор : 1
Формат : AVC
Формат/Информация : Advanced Video Codec
Профиль формата : High@L4.1
Параметр CABAC формата : Да
Параметр ReFrames формата : 9 кадров
Идентификатор кодека : V_MPEG4/ISO/AVC
Продолжительность : 1 ч. 22 м.
Битрейт : 6179 Кбит/сек
Ширина : 1280 пикселей
Высота : 694 пикселя
Соотношение сторон : 1,85:1
Режим частоты кадров : Постоянный
Частота кадров : 23,976 кадра/сек
Цветовое пространство : YUV
Субдискретизация насыщенности : 4:2:0
Битовая глубина : 8 бит
Тип развёртки : Прогрессивная
Бит/(Пиксели*Кадры) : 0.290
Размер потока : 3,56 Гбайт (82%)
Библиотека кодирования : x264 core 146 r2538 121396c
Настройки программы : cabac=1 / ref=9 / deblock=1:-1:-1 / analyse=0x3:0x113 / me=umh / subme=10 / psy=1 / psy_rd=1.00:0.15 / mixed_ref=1 / me_range=32 / chroma_me=1 / trellis=2 / 8x8dct=1 / cqm=0 / deadzone=21,11 / fast_pskip=1 / chroma_qp_offset=-3 / threads=6 / lookahead_threads=1 / sliced_threads=0 / nr=0 / decimate=1 / interlaced=0 / bluray_compat=0 / constrained_intra=0 / bframes=8 / b_pyramid=2 / b_adapt=2 / b_bias=0 / direct=1 / weightb=1 / open_gop=0 / weightp=2 / keyint=230 / keyint_min=23 / scenecut=40 / intra_refresh=0 / rc_lookahead=40 / rc=crf / mbtree=0 / crf=20.5 / qcomp=0.60 / qpmin=0 / qpmax=69 / qpstep=4 / vbv_maxrate=40000 / vbv_bufsize=50000 / crf_max=0.0 / nal_hrd=none / filler=0 / ip_ratio=1.40 / pb_ratio=1.30 / aq=1:1.00
Язык : English
Default : Да
Forced : Нет
DURATION : 01:22:27.943000000
NUMBER_OF_FRAMES : 118632
NUMBER_OF_BYTES : 3912707685
_STATISTICS_WRITING_APP : mkvmerge v7.9.0 ('Birds') 64bit
_STATISTICS_WRITING_DATE_UTC : 2015-06-28 06:10:44
_STATISTICS_TAGS : BPS DURATION NUMBER_OF_FRAMES NUMBER_OF_BYTES

Аудио #1
Идентификатор : 2
Формат : AC-3
Формат/Информация : Audio Coding 3
Профиль формата : Dolby Digital
Расширение режима : CM (complete main)
Параметр Endianness формата : Big
Идентификатор кодека : A_AC3
Продолжительность : 1 ч. 22 м.
Вид битрейта : Постоянный
Битрейт : 192 Кбит/сек
Каналы : 2 канала
Расположение каналов : Front: L R
Частота : 48,0 КГц
Битовая глубина : 16 бит
Метод сжатия : С потерями
Размер потока : 113 Мбайт (3%)
Заголовок : MVO (Премьер Видео)
Язык : Russian
Default : Да
Forced : Нет

Аудио #2
Идентификатор : 3
Формат : AC-3
Формат/Информация : Audio Coding 3
Профиль формата : Dolby Digital
Расширение режима : CM (complete main)
Параметр Endianness формата : Big
Идентификатор кодека : A_AC3
Продолжительность : 1 ч. 22 м.
Вид битрейта : Постоянный
Битрейт : 192 Кбит/сек
Каналы : 2 канала
Расположение каналов : Front: L R
Частота : 48,0 КГц
Битовая глубина : 16 бит
Метод сжатия : С потерями
Размер потока : 113 Мбайт (3%)
Заголовок : DVO (HTB+)
Язык : Russian
Default : Нет
Forced : Нет

Аудио #3
Идентификатор : 4
Формат : AC-3
Формат/Информация : Audio Coding 3
Профиль формата : Dolby Digital
Расширение режима : CM (complete main)
Параметр Endianness формата : Big
Идентификатор кодека : A_AC3
Продолжительность : 1 ч. 22 м.
Вид битрейта : Постоянный
Битрейт : 192 Кбит/сек
Каналы : 2 канала
Расположение каналов : Front: L R
Частота : 48,0 КГц
Битовая глубина : 16 бит
Метод сжатия : С потерями
Размер потока : 113 Мбайт (3%)
Заголовок : AVO (Сергей Визгунов)
Язык : Russian
Default : Нет
Forced : Нет

Аудио #4
Идентификатор : 5
Формат : AC-3
Формат/Информация : Audio Coding 3
Профиль формата : Dolby Digital
Расширение режима : CM (complete main)
Параметр Endianness формата : Big
Идентификатор кодека : A_AC3
Продолжительность : 1 ч. 22 м.
Вид битрейта : Постоянный
Битрейт : 192 Кбит/сек
Каналы : 2 канала
Расположение каналов : Front: L R
Частота : 48,0 КГц
Битовая глубина : 16 бит
Метод сжатия : С потерями
Размер потока : 113 Мбайт (3%)
Заголовок : AVO (Леонид Володарский)
Язык : Russian
Default : Нет
Forced : Нет

Аудио #5
Идентификатор : 6
Формат : AC-3
Формат/Информация : Audio Coding 3
Расширение режима : CM (complete main)
Параметр Endianness формата : Big
Идентификатор кодека : A_AC3
Продолжительность : 1 ч. 22 м.
Вид битрейта : Постоянный
Битрейт : 448 Кбит/сек
Каналы : 5 каналов
Расположение каналов : Front: L C R, Side: L R
Частота : 48,0 КГц
Битовая глубина : 16 бит
Метод сжатия : С потерями
Размер потока : 264 Мбайт (6%)
Заголовок : Original
Язык : English
Default : Нет
Forced : Нет

Текст
Идентификатор : 7
Формат : UTF-8
Идентификатор кодека : S_TEXT/UTF8
Идентификатор кодека/Информация : UTF-8 Plain Text
Заголовок : английский (для слабослышащих)
Язык : English
Default : Нет
Forced : Нет




_________________
Проголосуй за трекер Открытый торрент трекер - RUS-MEDIA.ORG

Проголосуй Открытый торрент трекер - RUS-MEDIA.ORG



реклама партнёра


Вернуться к началу
 Профиль Отправить личное сообщение  
 
   Похожие торренты   Автор   Торрент   Размер 
В этой теме нет новых непрочитанных сообщений. Маленькие негодяи / The Little Rascals [мелодрама, комедия, семейный, 1994] BDRip 1080p, Mvo+Dvo+Avo+Sub

salma3

26 | 2

9.31 ГБ

В этой теме нет новых непрочитанных сообщений. Маленькие негодяи спасают положение / The Little Rascals Save the Day [комедия, семейный, 2014] BDRip 1080p, Dub+Sub [лицензия]

Dracon

77 | 9

9.69 ГБ

В этой теме нет новых непрочитанных сообщений. Маленькие мужчины / Little Men [Драма, семейный, 2016] BDRip 720p, Mvo

salma3

32 | 10

3.31 ГБ

В этой теме нет новых непрочитанных сообщений. Парень-каратист 4 / Еще один малыш-каратист / The Next Karate Kid [Комедия, приключения, боевик, семейный, 1994] BDRip 720p, Mvo+Sub

salma3

21 | 5

7 ГБ

В этой теме нет новых непрочитанных сообщений. Я люблю неприятности / I Love Trouble [Боевик, мелодрама, комедия, 1994] BDRip 720p, Dub+2Mvo+Dvo+3Avo+Sub

salma3

17 | 4

7.37 ГБ

В этой теме нет новых непрочитанных сообщений. Первое свидание Райли (мультфильм, короткометражка, мелодрама, комедия, семейный, 2015) BDRip 720p | D

marya111

95 | 12

185.77 МБ

В этой теме нет новых непрочитанных сообщений. Флинстоуны / The Flintstones [Фэнтези, комедия, семейный, 1994] BDRip 1080p, Mvo+Dvo+3Avo+Sub

salma3

62 | 5

8.38 ГБ


Начать новую тему Ответить на тему  [ 1 сообщение ] 




Для Мосгорсуда, Роскомнадзора и рекламодателей:: mosgorsud-torrent[собачка]yandex.ru