Торрент файл
скачать торрент магнет ссылка Добавлен: 28 июн 2015, 12:00
Размер: 5.76 ГБ
Сидеров: 62
Личеров: 3
Автор

СообщениеДобавлено: 28 июн 2015, 12:00 

Не в сети
Супермодератор
Аватара пользователя
Дата регистрации:
15 фев 2012, 16:44
Возраст: 28
Спасибо: 6644 / 2146
Сообщения: 45843
Год выхода: 1989
Жанр: драма, мелодрама, комедия
Режиссер: Роб Райнер
В ролях: Билли Кристал, Мег Райан, Кэрри Фишер, Бруно Кёрби, Стивен Форд, Лиза Джейн Перски, Мишель Никастро, Гретхен Палмер, Роберт Алан Бойт, Дэвид Бёрдик

О фильме: Гарри и Салли знакомы со времен сотворения мира. Они вместе учились, приходят друг другу на выручку в любых жизненных передрягах, помогают в поисках близкого человека. Даже когда они теряют друг друга из виду, судьба сводит их снова и снова. Они лучшие друзья уже тысячу лет. Но их дружба постоянно находится под угрозой. Обоих настойчиво мучает вопрос: не следует ли им стать больше, чем друзьями?

Могут ли мужчина и женщина дружить по-настоящему? Или такая дружба неминуемо рано или поздно заканчивается более тесными отношениями?



Выпущено: Columbia Pictures
Продолжительность: 01:35:31
Перевод: Профессиональный многоголосый закадровый (лицензия) + авторский одноголосый закадровый (А.Михалёв)

Файл
Кодек: x264
Качество: BDRip (источник: Blu-ray Disc)
Видео: 1280x698 (1,85:1), 23.976 fps, 7540 kbps
Аудио #1: AC-3, 6 ch, 448 kbps (Rus)
Аудио #2: AC-3, 2 ch, 192 kbps (Rus)
Аудио #3: AC-3, 6 ch, 448 kbps (Eng)
Субтитры: Русские, Английские
Скачать: сэмпл

General
Unique ID : 198856680726540087718103276671585661445 (0x959A6752ACC9483CB05ABBB79A4AB205)
Complete name : D:When.Harry.Met.Sally.1989.BDRip.720p.Rus.Eng.mkv
Format : Matroska
Format version : Version 2
File size : 5.76 GiB
Duration : 1h 35mn
Overall bit rate : 8 627 Kbps
Movie name : Когда Гарри встретил Салли / When Harry Met Sally... (1989)
Encoded date : UTC 2015-06-18 12:12:10
Writing application : mkvmerge v5.8.0 ('No Sleep / Pillow') built on Sep 2 2012 15:37:04
Writing library : libebml v1.2.3 + libmatroska v1.3.0
Attachements : cover.png / logfile.log

Video
ID : 1
Format : AVC
Format/Info : Advanced Video Codec
Format profile : High@L4.1
Format settings, CABAC : Yes
Format settings, ReFrames : 8 frames
Codec ID : V_MPEG4/ISO/AVC
Duration : 1h 35mn
Bit rate : 7 539 Kbps
Width : 1 280 pixels
Height : 698 pixels
Display aspect ratio : 1.85:1
Frame rate mode : Constant
Frame rate : 23.976 fps
Color space : YUV
Chroma subsampling : 4:2:0
Bit depth : 8 bits
Scan type : Progressive
Bits/(Pixel*Frame) : 0.352
Stream size : 4.92 GiB (85%)
Title : Когда Гарри встретил Салли / When Harry Met Sally... (1989)
Writing library : x264 core 146 r0+2586 e393126 t_mod_Custom [8-bit@all X86_64]
Encoding settings : cabac=1 / ref=8 / deblock=1:-3:-3 / analyse=0x3:0x133 / me=esa / subme=10 / psy=1 / fade_compensate=0.00 / psy_rd=1.05:0.00 / mixed_ref=1 / me_range=32 / chroma_me=1 / trellis=2 / 8x8dct=1 / cqm=0 / deadzone=21,11 / fast_pskip=0 / chroma_qp_offset=-2 / threads=12 / lookahead_threads=2 / sliced_threads=0 / nr=0 / decimate=1 / interlaced=0 / bluray_compat=0 / constrained_intra=0 / fgo=0 / bframes=8 / b_pyramid=2 / b_adapt=2 / b_bias=0 / direct=3 / weightb=1 / open_gop=0 / weightp=2 / keyint=240 / keyint_min=23 / scenecut=40 / intra_refresh=0 / rc=2pass / mbtree=0 / bitrate=7539 / ratetol=1.0 / qcomp=0.70 / qpmin=0:0:0 / qpmax=69:69:69 / qpstep=4 / cplxblur=20.0 / qblur=0.5 / ip_ratio=1.40 / pb_ratio=1.30 / aq=1:0.70 / aq-sensitivity=10.00 / aq-factor=1.00:1.00:1.00 / aq2=0 / aq3=0
Language : English
Default : Yes
Forced : No

Audio #1
ID : 2
Format : AC-3
Format/Info : Audio Coding 3
Mode extension : CM (complete main)
Format settings, Endianness : Big
Codec ID : A_AC3
Duration : 1h 35mn
Bit rate mode : Constant
Bit rate : 448 Kbps
Channel(s) : 6 channels
Channel positions : Front: L C R, Side: L R, LFE
Sampling rate : 48.0 KHz
Bit depth : 16 bits
Compression mode : Lossy
Stream size : 306 MiB (5%)
Title : Многоголосый закадровый, Blu-ray EUR
Language : Russian
Default : Yes
Forced : No

Audio #2
ID : 3
Format : AC-3
Format/Info : Audio Coding 3
Mode extension : CM (complete main)
Format settings, Endianness : Big
Codec ID : A_AC3
Duration : 1h 35mn
Bit rate mode : Constant
Bit rate : 192 Kbps
Channel(s) : 2 channels
Channel positions : Front: L R
Sampling rate : 48.0 KHz
Bit depth : 16 bits
Compression mode : Lossy
Stream size : 131 MiB (2%)
Title : Одноголосый закадровый, А.Михалёв
Language : Russian
Default : No
Forced : No

Audio #3
ID : 4
Format : AC-3
Format/Info : Audio Coding 3
Mode extension : CM (complete main)
Format settings, Endianness : Big
Codec ID : A_AC3
Duration : 1h 35mn
Bit rate mode : Constant
Bit rate : 448 Kbps
Channel(s) : 6 channels
Channel positions : Front: L C R, Side: L R, LFE
Sampling rate : 48.0 KHz
Bit depth : 16 bits
Compression mode : Lossy
Stream size : 306 MiB (5%)
Title : English
Language : English
Default : No
Forced : No

Text #1
ID : 5
Format : UTF-8
Codec ID : S_TEXT/UTF8
Codec ID/Info : UTF-8 Plain Text
Title : Russian
Language : Russian
Default : No
Forced : No

Text #2
ID : 6
Format : UTF-8
Codec ID : S_TEXT/UTF8
Codec ID/Info : UTF-8 Plain Text
Title : English
Language : English
Default : No
Forced : No

Menu
00:00:00.000 : :Chapter 01
00:02:45.915 : :Chapter 02
00:10:12.028 : :Chapter 03
00:14:18.649 : :Chapter 04
00:17:23.959 : :Chapter 05
00:23:18.313 : :Chapter 06
00:28:34.796 : :Chapter 07
00:39:04.133 : :Chapter 08
00:43:20.222 : :Chapter 09
00:50:27.065 : :Chapter 10
00:59:55.300 : :Chapter 11
01:06:40.371 : :Chapter 12
01:15:11.006 : :Chapter 13
01:17:00.574 : :Chapter 14
01:21:30.468 : :Chapter 15
01:32:04.185 : :Chapter 16
x264 [info]: frame I:891 Avg QP:17.47 size:142643
x264 [info]: frame P:26983 Avg QP:19.71 size: 65373
x264 [info]: frame B:109552 Avg QP:22.05 size: 32013
x264 [info]: consecutive B-frames: 1.2% 1.2% 5.2% 14.0% 15.2% 54.7% 4.3% 2.0% 2.2%


_________________
Проголосуй за трекер Открытый торрент трекер - RUS-MEDIA.ORG

Проголосуй Открытый торрент трекер - RUS-MEDIA.ORG



реклама партнёра


Вернуться к началу
 Профиль Отправить личное сообщение  
 
   Похожие торренты   Автор   Торрент   Размер 
В этой теме нет новых непрочитанных сообщений. Когда Гарри встретил Седжал / Jab Harry met Sejal [драма, мелодрама, комедия, 2017] WEBDLRip, Mvo

salma3

56 | 3

2.14 ГБ

В этой теме нет новых непрочитанных сообщений. Да / Yes (Салли Поттер / Sally Potter) [2004г., Великобритания, драма, мелодрама, DVDRip] MVO

Alfredovich

8 | 0

1.45 ГБ

В этой теме нет новых непрочитанных сообщений. Вечеринка / The Party (Салли Поттер / Sally Potter) [2017г., Великобритания, драма, комедия, HDRip] MVO

Alfredovich

44 | 6

1.37 ГБ

В этой теме нет новых непрочитанных сообщений. Кто такой Гарри Крамб? / Who's Harry Crumb? [комедия, криминал, детектив, 1989] WEB-DL 1080p, Mvo+Dvo+Avo+Sub

salma3

0 | 0

3.73 ГБ

В этой теме нет новых непрочитанных сообщений. Грязный Гарри / Dirty Harry [боевик, триллер, криминал, 1971] BDRip 720p, Mvo

salma3

11 | 2

4.28 ГБ

В этой теме нет новых непрочитанных сообщений. Грязный Гарри 5: Игра в смерть / Dirty Harry 5: The Dead Pool [Боевик, триллер, криминал, 1988] BDRip 720p, Dub

salma3

0 | 0

6.03 ГБ

В этой теме нет новых непрочитанных сообщений. Свяжи меня / Átame! [драма, мелодрама, комедия, 1989] BDRip 720p, Dvo

salma3

26 | 9

9.52 ГБ


Начать новую тему Ответить на тему  [ 1 сообщение ] 




Для Мосгорсуда, Роскомнадзора и рекламодателей:: mosgorsud-torrent[собачка]yandex.ru