Торрент файл
скачать торрент магнет ссылка Добавлен: 27 июн 2015, 12:08
Размер: 6.17 ГБ
Сидеров: 110
Личеров: 5
Автор

СообщениеДобавлено: 27 июн 2015, 12:08 

Не в сети
Супермодератор
Аватара пользователя
Дата регистрации:
15 фев 2012, 16:44
Возраст: 29
Спасибо: 7377 / 2147
Сообщения: 75752
Год выхода: 1996
Жанр: комедия, боевик
Режиссер: Рик Фридберг
В ролях: Лесли Нильсен, Николлетт Шеридан, Чарльз Дёрнинг, Марша Гей Харден, Бэрри Боствик, Джон Алес, Энди Гриффит, Илья Баскин, Мейсон Гэмбл, Карлос Лаучу, Стефани Романов, Рэй Чарльз, Халк Хоган, Роджер Клинтон, Роберт Калп, Роберт Гийом, Пэт Морита, Александра Пол, Мистер Ти, Алекс Требек, Тейлор Негрон, Кёртис Армстронг, Тина Арнинг, Уильям Барилларо, Майкл Берриман, Даунтаун Джули Браун, Стефен Берроуз, Кит Кэмпбелл, Карл Киарфалио, Брэд Грюнберг, Уэйн Коттер, Рик Крамер, Эдди Дизен, Пол Элиопулос, Эндрю Кристиан Инглиш, Джонни Джи, Брэд Гэррет, Майкл Ли Годжин, Брюс Грэй, Кевин Гроувер, Холлис Хилл, Брайан Хау, Кевин Джексон, Барбара Исаак, Ниа Джеймс, Валентино Джонсон

О фильме:
Секретный агент ВД — 40 должен расстроить коварный план суперврага генерала Ранкора — сумасшедшего психопата, потерявшего руки во время взрыва — но он вооружен и очень опасен!
Миссия суперагента — спасти мир от разрушения, вызволить дочь своей погибшей много лет назад подруги, и, конечно же, внедриться в ряды террористов вместе со своей сексуальной напарницей.



Страна: США
Студия: Hollywоod Pictures
Продолжительность: 01:17:37
Перевод: Профессиональный многоголосый закадровый, Профессиональный двухголосый закадровый, Авторский одноголосый закадровый

Файл
Кодек: h.264
Качество: BDRip
Видео: MPEG-4 AVC, 1920x1032, 9 200 Кбит/с, 25.000 кадр/с
Звук:
Аудио #1: Русский ( AC3, 2ch, 448 Кбит/с, 48.0 KHz) Профессиональный (многоголосый, закадровый) СТС
Аудио #2: Русский ( AC3, 2ch, 192 Кбит/с, 48.0 KHz) Профессиональный (многоголосый, закадровый) Видеосервис
Аудио #3: Русский ( AC3, 2ch, 192 Кбит/с, 48.0 KHz) Профессиональный (двухголосый, закадровый) Уолт Дисней Компани СНГ
Аудио #4: Русский ( AC3, 2ch, 192 Кбит/с, 48.0 KHz) Авторский (одноголосый закадровый) Сергей Визгунов
Аудио #5: Русский ( AC3, 2ch, 192 Кбит/с, 48.0 KHz) Авторский (одноголосый закадровый) Юрий Живов
Аудио #6: Русский ( AC3, 2ch, 192 Кбит/с, 48.0 KHz) Авторский (одноголосый закадровый) Павел Санаев
Аудио #7: Русский ( AC3, 2ch, 192 Кбит/с, 48.0 KHz) Одноголосый закадровый Диктор CDV
Аудио #8: Русский ( AC3, 2ch, 448 Кбит/с, 48.0 KHz) Профессиональный (двухголосый, закадровый) ICTV украинский
Аудио #9: Английский ( AC3, 6ch, 448 Кбит/с, 48.0 KHz)
Субтитры: Английскиe
Complete name : Spy.Hard.1996.WEB-DL.1080p.mkv
Format : Matroska
Format version : Version 4 / Version 2
File size : 6.17 GiB
Duration : 1h 17mn
Overall bit rate : 11.4 Mbps
Encoded date : UTC 2015-06-26 15:33:18
Writing application : mkvmerge v7.8.0 ('River Man') 64bit built on Mar 27 2015 16:31:37
Writing library : libebml v1.3.1 + libmatroska v1.4.2
DURATION : 01:16:12.997000000
NUMBER_OF_FRAMES : 976
NUMBER_OF_BYTES : 35983
_STATISTICS_WRITING_APP : mkvmerge v7.8.0 ('River Man') 64bit built on Mar 27 2015 16:31:37
_STATISTICS_WRITING_DATE_UTC : 2015-06-26 15:33:18
_STATISTICS_TAGS : BPS DURATION NUMBER_OF_FRAMES NUMBER_OF_BYTES

Video
ID : 1
Format : AVC
Format/Info : Advanced Video Codec
Format profile : High@L4.1
Format settings, CABAC : Yes
Format settings, ReFrames : 4 frames
Codec ID : V_MPEG4/ISO/AVC
Duration : 1h 17mn
Nominal bit rate : 9 200 Kbps
Width : 1 920 pixels
Height : 1 032 pixels
Display aspect ratio : 1.85:1
Frame rate mode : Constant
Frame rate : 25.000 fps
Color space : YUV
Chroma subsampling : 4:2:0
Bit depth : 8 bits
Scan type : Progressive
Bits/(Pixel*Frame) : 0.186
Title : Video
Writing library : x264 core 130 r2273 b3065e6
Encoding settings : cabac=1 / ref=4 / deblock=1:-1:-1 / analyse=0x3:0x113 / me=umh / subme=11 / psy=1 / psy_rd=1.00:0.15 / mixed_ref=1 / me_range=32 / chroma_me=1 / trellis=2 / 8x8dct=1 / cqm=0 / deadzone=21,11 / fast_pskip=0 / chroma_qp_offset=2 / threads=6 / lookahead_threads=1 / sliced_threads=0 / nr=0 / decimate=1 / interlaced=0 / bluray_compat=0 / constrained_intra=0 / bframes=10 / b_pyramid=2 / b_adapt=2 / b_bias=0 / direct=3 / weightb=1 / open_gop=1 / weightp=2 / keyint=250 / keyint_min=23 / scenecut=40 / intra_refresh=0 / rc_lookahead=50 / rc=2pass / mbtree=1 / bitrate=9200 / ratetol=1.0 / qcomp=0.69 / qpmin=0 / qpmax=69 / qpstep=4 / cplxblur=20.0 / qblur=0.5 / ip_ratio=1.40 / aq=1:1.00
Language : English
Default : Yes
Forced : No

Audio #1
ID : 2
Format : AC-3
Format/Info : Audio Coding 3
Mode extension : CM (complete main)
Format settings, Endianness : Big
Codec ID : A_AC3
Duration : 1h 17mn
Bit rate mode : Constant
Bit rate : 448 Kbps
Channel(s) : 2 channels
Channel positions : Front: L R
Sampling rate : 48.0 KHz
Bit depth : 16 bits
Compression mode : Lossy
Stream size : 249 MiB (4%)
Title : CTC
Language : Russian
Default : Yes
Forced : No

Audio #2
ID : 3
Format : AC-3
Format/Info : Audio Coding 3
Mode extension : CM (complete main)
Format settings, Endianness : Big
Codec ID : A_AC3
Duration : 1h 17mn
Bit rate mode : Constant
Bit rate : 192 Kbps
Channel(s) : 2 channels
Channel positions : Front: L R
Sampling rate : 48.0 KHz
Bit depth : 16 bits
Compression mode : Lossy
Stream size : 107 MiB (2%)
Title : VideoServis
Language : Russian
Default : No
Forced : No

Audio #3
ID : 4
Format : AC-3
Format/Info : Audio Coding 3
Mode extension : CM (complete main)
Format settings, Endianness : Big
Codec ID : A_AC3
Duration : 1h 17mn
Bit rate mode : Constant
Bit rate : 192 Kbps
Channel(s) : 2 channels
Channel positions : Front: L R
Sampling rate : 48.0 KHz
Bit depth : 16 bits
Compression mode : Lossy
Stream size : 107 MiB (2%)
Title : Uolt Disnej Kompani SNG
Language : Russian
Default : No
Forced : No

Audio #4
ID : 5
Format : AC-3
Format/Info : Audio Coding 3
Mode extension : CM (complete main)
Format settings, Endianness : Big
Codec ID : A_AC3
Duration : 1h 17mn
Bit rate mode : Constant
Bit rate : 192 Kbps
Channel(s) : 2 channels
Channel positions : Front: L R
Sampling rate : 48.0 KHz
Bit depth : 16 bits
Compression mode : Lossy
Stream size : 107 MiB (2%)
Title : Vizgunov
Language : Russian
Default : No
Forced : No

Audio #5
ID : 6
Format : AC-3
Format/Info : Audio Coding 3
Mode extension : CM (complete main)
Format settings, Endianness : Big
Codec ID : A_AC3
Duration : 1h 17mn
Bit rate mode : Constant
Bit rate : 192 Kbps
Channel(s) : 2 channels
Channel positions : Front: L R
Sampling rate : 48.0 KHz
Bit depth : 16 bits
Compression mode : Lossy
Stream size : 107 MiB (2%)
Title : Zhivov
Language : Russian
Default : No
Forced : No

Audio #6
ID : 7
Format : AC-3
Format/Info : Audio Coding 3
Mode extension : CM (complete main)
Format settings, Endianness : Big
Codec ID : A_AC3
Duration : 1h 17mn
Bit rate mode : Constant
Bit rate : 192 Kbps
Channel(s) : 2 channels
Channel positions : Front: L R
Sampling rate : 48.0 KHz
Bit depth : 16 bits
Compression mode : Lossy
Stream size : 107 MiB (2%)
Title : Sanaev
Language : Russian
Default : No
Forced : No

Audio #7
ID : 8
Format : AC-3
Format/Info : Audio Coding 3
Codec ID : A_AC3
Duration : 1h 17mn
Channel(s) : 2 channels
Sampling rate : 48.0 KHz
Compression mode : Lossy
Title : Diktor CDV
Language : Russian
Default : No
Forced : No

Audio #8
ID : 9
Format : AC-3
Format/Info : Audio Coding 3
Codec ID : A_AC3
Duration : 1h 17mn
Channel(s) : 2 channels
Sampling rate : 48.0 KHz
Compression mode : Lossy
Title : ICTV
Language : Ukrainian
Default : No
Forced : No

Audio #9
ID : 10
Format : AC-3
Format/Info : Audio Coding 3
Codec ID : A_AC3
Duration : 1h 17mn
Channel(s) : 6 channels
Sampling rate : 48.0 KHz
Compression mode : Lossy
Title : Original
Language : English
Default : No
Forced : No

Text
ID : 11
Format : UTF-8
Codec ID : S_TEXT/UTF8
Codec ID/Info : UTF-8 Plain Text
Language : English
Default : No
Forced : No












_________________
Проголосуй за трекер Открытый торрент трекер - RUS-MEDIA.ORG

Проголосуй Открытый торрент трекер - RUS-MEDIA.ORG


Вернуться к началу
 Профиль Отправить личное сообщение  
 
   Похожие торренты   Автор   Торрент   Размер 
В этой теме нет новых непрочитанных сообщений. Блуждающая пуля / Hollow Point [Боевик, триллер, комедия, 1996] DVDRip-AVC, 2mvo+Avo

salma3

87 | 4

2.18 ГБ

В этой теме нет новых непрочитанных сообщений. Один прекрасный день / One Fine Day [драма, мелодрама, комедия, 1996] BDRip 1080p, 2Mvo

salma3

0 | 0

7.94 ГБ

В этой теме нет новых непрочитанных сообщений. Случайный шпион / Dak miu mai shing [Боевик, триллер, комедия, 2001] BDRip 1080p, Mvo

salma3

0 | 8

7.77 ГБ

В этой теме нет новых непрочитанных сообщений. Один прекрасный день / One Fine Day [драма, мелодрама, комедия, 1996] BDRip 720p, 2Mvo

salma3

0 | 0

7.95 ГБ

В этой теме нет новых непрочитанных сообщений. Преследуемый / The Hunted [Боевик, триллер, драма, 1995] BDRip 1080p, 2Dvo+4Avo

salma3

21 | 9

16.55 ГБ

В этой теме нет новых непрочитанных сообщений. Зовите меня 'О'! / Ho! [боевик, 1968] Blu-ray 1080p, 2Mvo

salma3

4 | 1

21.53 ГБ

В этой теме нет новых непрочитанных сообщений. Шпион / Spy [Боевик, комедия, криминал, 2015] HDRip-AVC, Dub [Unrated Cut]

salma3

241 | 89

746.89 МБ


Начать новую тему Ответить на тему  [ 1 сообщение ] 




Для Мосгорсуда, Роскомнадзора и рекламодателей:: mosgorsud-torrent[собачка]yandex.ru
cron