Торрент файл
скачать торрент магнет ссылка Добавлен: 27 июн 2015, 11:03
Размер: 4.45 ГБ
Сидеров: 2
Личеров: 0
Автор

СообщениеДобавлено: 27 июн 2015, 11:03 

Не в сети
Зам. Админа
Аватара пользователя
Дата регистрации:
02 дек 2010, 12:39
Спасибо: 12654 / 214
Сообщения: 28010
Год выхода: 2015
Жанр: Боевик,Триллер,Драма,Криминал
Режиссер: Дэниэл Альфредсон
В ролях: Сэм Уортингтон, Энтони Хопкинс , Джим Стёрджесс, Райан Квантен, Роб Фуллер, Джемайма Уэст, Иоланта Кабау ван Касберген, Давид Денсик, Билли Слотер, Гас Родс

 О фильме: Осенью 1983 года Амстердам был потрясен одним из самых известных и дерзких преступлений 20 века: владелец одной из крупнейших в мире пивоварен Heineken — Альфред Хайнекен — был похищен вместе с личным шофером прямо из собственного автомобиля. Несколько друзей, которым очень нужны были деньги, решили не мелочиться и заработать много и сразу, похитив одного из самых богатых людей в стране. Проведя тщательную подготовку, свои намерения они осуществили. Преступники требовали у родственников в качестве выкупа сумасшедшую по тем временам сумму — 35 млн. голландских гульденов (около 16 млн. евро). Взамен обещали сохранить жизни обоим. Все полицейские силы Амстердама безуспешно пытались выйти на след похитителей, но те действовали безошибочно… Хайнекен провел 20 чудовищных дней, прикованный цепью к стене, в специально оборудованной звуконепроницаемой камере. Даже в таких нечеловеческих условиях, Фредди не ломается, он вступает в психологический поединок с главарем банды и побеждает. Однако, выиграть психологическую схватку и выжить — это две большие разницы. После получения требуемой суммы мошенники решают скрыться, оставив жертвы медленно умирать на привязи.
  

Качество: BDRip [720p]
Видео: MPEG4, Video, (H264), 1280x536, 23.976fps, 5 960 Kbps
Аудио 1: Русский: MP3, 44100Hz, stereo, 128 Kbps
Аудио 2: Английский:: Dolby, AC3, 48000Hz, 6ch, 640 Kbps
Продолжительность: 01:34:44
Перевод: Дублированный [Чистый звук]

Kidnapping.Mr.Heineken.2015.D.BDRip.720p.Rus.Eng.mkv
Format                                   : Matroska
Format version                           : Version 4 / Version 2
File size                                : 4.45 GiB
Duration                                 : 1h 34mn
Overall bit rate                         : 6 727 Kbps
Encoded date                             : UTC 2015-06-26 23:46:31
Writing application                      : mkvmerge v7.2.0 ('On Every Street') 64bit built on Sep 13 2014 15:52:10
Writing library                          : libebml v1.3.0 + libmatroska v1.4.1
DURATION                                 : 01:34:44.532000000
NUMBER_OF_FRAMES                         : 217611
NUMBER_OF_BYTES                          : 90952516
_STATISTICS_WRITING_APP                  : mkvmerge v7.2.0 ('On Every Street') 64bit built on Sep 13 2014 15:52:10
_STATISTICS_WRITING_DATE_UTC             : 2015-06-26 23:46:31
_STATISTICS_TAGS                         : BPS DURATION NUMBER_OF_FRAMES NUMBER_OF_BYTES

Video
ID                                       : 1
Format                                   : AVC
Format/Info                              : Advanced Video Codec
Format profile                           : High@L4.1
Format settings, CABAC                   : Yes
Format settings, ReFrames                : 5 frames
Codec ID                                 : V_MPEG4/ISO/AVC
Duration                                 : 1h 34mn
Bit rate                                 : 5 960 Kbps
Width                                    : 1 280 pixels
Height                                   : 536 pixels
Display aspect ratio                     : 2.40:1
Frame rate mode                          : Constant
Frame rate                               : 23.976 fps
Color space                              : YUV
Chroma subsampling                       : 4:2:0
Bit depth                                : 8 bits
Scan type                                : Progressive
Bits/(Pixel*Frame)                       : 0.362
Stream size                              : 3.85 GiB (87%)
Writing library                          : x264 core 144 r2525 40bb568
Encoding settings                        : cabac=1 / ref=5 / deblock=1:0:0 / analyse=0x3:0x133 / me=umh / subme=7 / psy=1 / psy_rd=1.00:0.00 / mixed_ref=1 / me_range=16 / chroma_me=1 / trellis=1 / 8x8dct=1 / cqm=0 / deadzone=21,11 / fast_pskip=0 / chroma_qp_offset=-2 / threads=18 / lookahead_threads=3 / sliced_threads=0 / nr=0 / decimate=1 / interlaced=0 / bluray_compat=0 / constrained_intra=0 / bframes=3 / b_pyramid=2 / b_adapt=1 / b_bias=0 / direct=1 / weightb=1 / open_gop=0 / weightp=2 / keyint=250 / keyint_min=23 / scenecut=40 / intra_refresh=0 / rc_lookahead=40 / rc=2pass / mbtree=1 / bitrate=5960 / ratetol=1.0 / qcomp=0.60 / qpmin=0 / qpmax=69 / qpstep=4 / cplxblur=20.0 / qblur=0.5 / ip_ratio=1.40 / aq=1:1.00
Language                                 : English
Default                                  : Yes
Forced                                   : No
DURATION                                 : 01:34:44.480000000
NUMBER_OF_FRAMES                         : 136291
NUMBER_OF_BYTES                          : 4232662111
_STATISTICS_WRITING_APP                  : mkvmerge v7.2.0 ('On Every Street') 64bit built on Sep 13 2014 15:52:10
_STATISTICS_WRITING_DATE_UTC             : 2015-06-26 23:46:31
_STATISTICS_TAGS                         : BPS DURATION NUMBER_OF_FRAMES NUMBER_OF_BYTES

Audio #1
ID                                       : 2
Format                                   : MPEG Audio
Format version                           : Version 1
Format profile                           : Layer 3
Codec ID                                 : A_MPEG/L3
Codec ID/Hint                            : MP3
Duration                                 : 1h 34mn
Bit rate mode                            : Constant
Bit rate                                 : 128 Kbps
Channel(s)                               : 2 channels
Sampling rate                            : 44.1 KHz
Compression mode                         : Lossy
Stream size                              : 86.7 MiB (2%)
Language                                 : Russian
Default                                  : Yes
Forced                                   : No

Audio #2
ID                                       : 3
Format                                   : AC-3
Format/Info                              : Audio Coding 3
Mode extension                           : CM (complete main)
Format settings, Endianness              : Big
Codec ID                                 : A_AC3
Duration                                 : 1h 34mn
Bit rate mode                            : Constant
Bit rate                                 : 640 Kbps
Channel(s)                               : 6 channels
Channel positions                        : Front: L C R, Side: L R, LFE
Sampling rate                            : 48.0 KHz
Bit depth                                : 16 bits
Compression mode                         : Lossy
Stream size                              : 434 MiB (10%)
Language                                 : English
Default                                  : No
Forced                                   : No

Menu
00:00:00.000                             : en:00:00:00.000
00:07:44.381                             : en:00:07:44.381
00:16:22.148                             : en:00:16:22.148
00:25:26.150                             : en:00:25:26.150
00:33:28.548                             : en:00:33:28.548
00:39:29.450                             : en:00:39:29.450
00:49:56.785                             : en:00:49:56.785
00:57:10.886                             : en:00:57:10.886
01:04:19.022                             : en:01:04:19.022
01:12:05.112                             : en:01:12:05.112
01:21:20.793                             : en:01:21:20.793
01:29:26.945                             : en:01:29:26.945












Вернуться к началу
 Профиль  
 
   Похожие торренты   Автор   Торрент   Размер 
В этой теме нет новых непрочитанных сообщений. Перевозчик: Наследие / The Transporter Refueled [боевик, триллер, криминал, 2015] BDRip 720p, dub+sub [Чистый звук]

salma3

144 | 0

4.5 ГБ

В этой теме нет новых непрочитанных сообщений. Аддеролловые дневники / The Adderall Diaries [триллер, драма, криминал, 2015] BDRip 720p, Dub [чистый звук]

salma3

92 | 14

3.57 ГБ

В этой теме нет новых непрочитанных сообщений. 007: СПЕКТР / Spectre [боевик, триллер, приключения, 2015] BDRip 720p, dub+sub [Чистый звук]

Dracon

12184 | 2779

5.58 ГБ

В этой теме нет новых непрочитанных сообщений. Перевозчик: Наследие / The Transporter Refueled [боевик, триллер, криминал, 2015] BDRip 1080p, dub+sub [Чистый звук]

Dracon

143 | 4

7.78 ГБ

В этой теме нет новых непрочитанных сообщений. Отряд / Antigang [Боевик, драма, 2015] BDRip 720p, dub [Чистый звук]

Dracon

640 | 31

5.09 ГБ

В этой теме нет новых непрочитанных сообщений. Аддеролловые дневники / The Adderall Diaries [триллер, драма, криминал, 2015] BDRip 1080p, Dub [чистый звук]

salma3

78 | 25

6.31 ГБ

В этой теме нет новых непрочитанных сообщений. Убийца / Sicario (Дени Вильнёв) [Боевик, триллер, драма, криминал, детектив, 2015] HDRip, dub [Чистый звук]

Dracon

5063 | 148

1.46 ГБ


Начать новую тему Ответить на тему  [ 1 сообщение ] 




Для Мосгорсуда, Роскомнадзора и рекламодателей:: mosgorsud-torrent[собачка]yandex.ru
cron