Торрент файл
скачать торрент магнет ссылка Добавлен: 25 июн 2015, 11:54
Размер: 8.86 ГБ
Сидеров: 104
Личеров: 12
Автор

СообщениеДобавлено: 25 июн 2015, 11:54 

Не в сети
Супермодератор
Аватара пользователя
Дата регистрации:
15 фев 2012, 16:44
Возраст: 28
Спасибо: 6917 / 2147
Сообщения: 52694
Год выпуска: 2007
Страна: Франция
Жанр: триллер, драма
Продолжительность: 01:44:51
Перевод: профессиональный многоголосый

Режиссёр: Клод Лелуш

В ролях: Доминик Пинон, Фанни Ардан, Одри Дана, Мишель Бернье, Мириам Бойер, Зинедин Солем, Борис Вентура, Марк Риуфол, Томас Ле Дуарец, Ив Битун, Ребекка Бланк, Жером Кашон, Мари-Виктуар Дебре, Эрик Делкур, Сирилл Элдин, Арлетт Гордон, Уильям Леймержи

Описание: Полиция допрашивает писательницу Жюдит Ралитцер, которую подозревают в убийстве. Но кто её жертва? Из тюрьмы сбегает серийный убийца по кличке Фокусник, названным так из-за привычки показывать фокусы своим жертвам. На заправке парикмахерша Югетт, только что поссорившаяся с другом, переживает разрыв. К ней подходит незнакомец, который не прочь завязать разговор. А вдруг это тот самый маньяк? Действие перепрыгивает во времени, герои оказываются связаны друг с другом, а зрителю предстоит поломать голову чтобы понять, кто же на самом деле Фокусник, и в чём обвиняется знаменитая писательница?...



Качество: BDRip 1080p Сравнение с исходником
Формат: MKV
Видео: MPEG-4 AVC, 10.8 Mбит/с, 1920х816, 24 кадра/с
Аудио 1: русский, AC3, 384 kbps, 6 ch, 48 kHz [профессиональный многоголосый]
Аудио 2: французский, AC3, 640 kbps, 6 ch, 48 kHz [оригинал]

Общее
Уникальный идентификатор : 223930752204181132653973013499384824769 (0xA8777E7E3FF2CD2E87D4B6D3D21203C1)
Полное имя : D:VideoЖелезнодорожный роман.2007.BDRip.1080p.mkv
Формат : Matroska
Версия формата : Version 4 / Version 2
Размер файла : 8,86 Гбайт
Продолжительность : 1 ч. 44 м.
Общий поток : 12,1 Мбит/сек
Название фильма : BDRip -- STarankov
Дата кодирования : UTC 2015-06-24 06:04:46
Программа кодирования : mkvmerge v7.9.0 ('Birds') 64bit
Библиотека кодирования : libebml v1.3.1 + libmatroska v1.4.2
DURATION : 01:44:51.584000000
NUMBER_OF_FRAMES : 196612
NUMBER_OF_BYTES : 503326720
_STATISTICS_WRITING_APP : mkvmerge v7.9.0 ('Birds') 64bit
_STATISTICS_WRITING_DATE_UTC : 2015-06-24 06:04:46
_STATISTICS_TAGS : BPS DURATION NUMBER_OF_FRAMES NUMBER_OF_BYTES

Видео
Идентификатор : 1
Формат : AVC
Формат/Информация : Advanced Video Codec
Профиль формата : High@L4.1
Параметр CABAC формата : Да
Параметр ReFrames формата : 4 кадра
Идентификатор кодека : V_MPEG4/ISO/AVC
Продолжительность : 1 ч. 44 м.
Битрейт : 10,8 Мбит/сек
Ширина : 1920 пикселей
Высота : 816 пикселей
Соотношение сторон : 2,35:1
Режим частоты кадров : Постоянный
Частота кадров : 24,000 кадра/сек
Цветовое пространство : YUV
Субдискретизация насыщенности : 4:2:0
Битовая глубина : 8 бит
Тип развёртки : Прогрессивная
Бит/(Пиксели*Кадры) : 0.288
Размер потока : 7,94 Гбайт (90%)
Библиотека кодирования : x264 core 146 r2538 121396c
Настройки программы : cabac=1 / ref=4 / deblock=1:-1:-1 / analyse=0x3:0x113 / me=umh / subme=10 / psy=1 / psy_rd=1.00:0.15 / mixed_ref=1 / me_range=32 / chroma_me=1 / trellis=2 / 8x8dct=1 / cqm=0 / deadzone=21,11 / fast_pskip=1 / chroma_qp_offset=-3 / threads=6 / lookahead_threads=1 / sliced_threads=0 / nr=0 / decimate=1 / interlaced=0 / bluray_compat=0 / constrained_intra=0 / bframes=10 / b_pyramid=2 / b_adapt=2 / b_bias=0 / direct=1 / weightb=1 / open_gop=0 / weightp=2 / keyint=230 / keyint_min=23 / scenecut=40 / intra_refresh=0 / rc_lookahead=40 / rc=crf / mbtree=0 / crf=19.0 / qcomp=0.60 / qpmin=0 / qpmax=69 / qpstep=4 / vbv_maxrate=40000 / vbv_bufsize=50000 / crf_max=0.0 / nal_hrd=none / filler=0 / ip_ratio=1.40 / pb_ratio=1.30 / aq=1:1.00
Язык : French
Default : Да
Forced : Нет
DURATION : 01:44:51.584000000
NUMBER_OF_FRAMES : 150998
NUMBER_OF_BYTES : 8710834471
_STATISTICS_WRITING_APP : mkvmerge v7.9.0 ('Birds') 64bit
_STATISTICS_WRITING_DATE_UTC : 2015-06-24 06:04:46
_STATISTICS_TAGS : BPS DURATION NUMBER_OF_FRAMES NUMBER_OF_BYTES

Аудио #1
Идентификатор : 2
Формат : AC-3
Формат/Информация : Audio Coding 3
Расширение режима : CM (complete main)
Параметр Endianness формата : Big
Идентификатор кодека : A_AC3
Продолжительность : 1 ч. 44 м.
Вид битрейта : Постоянный
Битрейт : 384 Кбит/сек
Каналы : 6 каналов
Расположение каналов : Front: L C R, Side: L R, LFE
Частота : 48,0 КГц
Битовая глубина : 16 бит
Метод сжатия : С потерями
Размер потока : 288 Мбайт (3%)
Заголовок : MVO
Язык : Russian
Default : Да
Forced : Нет

Аудио #2
Идентификатор : 3
Формат : AC-3
Формат/Информация : Audio Coding 3
Расширение режима : CM (complete main)
Параметр Endianness формата : Big
Идентификатор кодека : A_AC3
Продолжительность : 1 ч. 44 м.
Вид битрейта : Постоянный
Битрейт : 640 Кбит/сек
Каналы : 6 каналов
Расположение каналов : Front: L C R, Side: L R, LFE
Частота : 48,0 КГц
Битовая глубина : 16 бит
Метод сжатия : С потерями
Размер потока : 480 Мбайт (5%)
Заголовок : Original
Язык : French
Default : Нет
Forced : Нет




_________________
Проголосуй за трекер Открытый торрент трекер - RUS-MEDIA.ORG

Проголосуй Открытый торрент трекер - RUS-MEDIA.ORG



реклама партнёра


Вернуться к началу
 Профиль Отправить личное сообщение  
 
   Похожие торренты   Автор   Торрент   Размер 
В этой теме нет новых непрочитанных сообщений. Железнодорожный роман / Roman de gare [триллер, драма, 2007] Blu-ray 1080p, Mvo

salma3

32 | 63

21.21 ГБ

В этой теме нет новых непрочитанных сообщений. Железнодорожный роман / Roman de gare [триллер, драма, 2007] BDRip 720p, Mvo

salma3

165 | 23

3.83 ГБ

В этой теме нет новых непрочитанных сообщений. Шум / Noise [триллер, драма, криминал, 2007] BDRip 1080p, Avo

salma3

36 | 7

7.03 ГБ

В этой теме нет новых непрочитанных сообщений. Заложники / Take [Триллер, драма, криминал, 2007] BDRip 1080p, Dvo

salma3

31 | 0

7.78 ГБ

В этой теме нет новых непрочитанных сообщений. Посланники / The Messengers [ужасы, триллер, драма, 2007] BDRip 1080p, Dub+Dvo+Avo+Sub

salma3

0 | 0

7.73 ГБ

В этой теме нет новых непрочитанных сообщений. Наркоз / Awake [триллер, драма, мелодрама, 2007] BDRip 1080p, Dub

salma3

169 | 91

7.84 ГБ

В этой теме нет новых непрочитанных сообщений. Бугимен 2 / Boogeyman 2 [ужасы, триллер, драма, 2007] BDRip 1080p, Dub

salma3

46 | 68

8.25 ГБ


Начать новую тему Ответить на тему  [ 1 сообщение ] 




Для Мосгорсуда, Роскомнадзора и рекламодателей:: mosgorsud-torrent[собачка]yandex.ru
cron