Торрент файл
скачать торрент магнет ссылка Добавлен: 24 июн 2015, 20:47
Размер: 3.08 ГБ
Сидеров: 1
Личеров: 1
Автор

СообщениеДобавлено: 24 июн 2015, 20:47 

Не в сети
Зам. Админа
Аватара пользователя
Дата регистрации:
02 дек 2010, 12:39
Спасибо: 12652 / 214
Сообщения: 28010
Год выхода: 2015
Жанр: Триллер, Драма, Криминал
Режиссер: Агустин
В ролях: Мартин Шин, Мена Сувари, Джесси Брэдфорд, Локлин Манро, Наташа Хенстридж, Хэйли Дафф, Патрик Малдун, Алекс Паунович, Трэвис Милн, Chelsea Baker

О фильме:
Двое детективов из отдела по борьбе с наркотиками оказываются втянуты в бурное расследование возглавляемое детективом из министерства внутренних дел. Все начинается из-за того, что во время полицейской облавы застрелили ребенка…

  

Качество: WEB-DLRip[720p]
Видео: MPEG4, Video, (H264), 1280x718, (41:23), 24fps, 3830 Kbps
Аудио 1: Русский: Dolby, AC3, 48000Hz, stereo, 192kbps
Аудио 2: Английский:: Dolby, AC3, 48000Hz, 6ch, 384kbps
Продолжительность: 01:38:11
Перевод: Профессиональный (многоголосный) [Официальный звук]

Znak.po4eta.2015.P.WEBDL.720p.mkv
Format                                   : Matroska
Format version                           : Version 2
File size                                : 3.08 GiB
Duration                                 : 1h 38mn
Overall bit rate                         : 4 496 Kbps
Encoded date                             : UTC 2015-06-24 11:37:19
Writing application                      : mkvmerge v4.0.0 ('The Stars were mine') сборка от Jun  6 2010 16:18:42
Writing library                          : libebml v1.0.0 + libmatroska v1.0.0

Video
ID                                       : 1
Format                                   : AVC
Format/Info                              : Advanced Video Codec
Format profile                           : High@L3.1
Format settings, CABAC                   : No
Format settings, ReFrames                : 2 frames
Codec ID                                 : V_MPEG4/ISO/AVC
Duration                                 : 1h 38mn
Bit rate                                 : 3 830 Kbps
Width                                    : 1 280 pixels
Height                                   : 718 pixels
Display aspect ratio                     : 16:9
Frame rate mode                          : Constant
Frame rate                               : 23.976 fps
Color space                              : YUV
Chroma subsampling                       : 4:2:0
Bit depth                                : 8 bits
Scan type                                : Progressive
Bits/(Pixel*Frame)                       : 0.174
Stream size                              : 2.63 GiB (85%)
Language                                 : English
Default                                  : No
Forced                                   : No
Color primaries                          : BT.709
Transfer characteristics                 : BT.709
Matrix coefficients                      : BT.709

Audio #1
ID                                       : 2
Format                                   : AC-3
Format/Info                              : Audio Coding 3
Mode extension                           : CM (complete main)
Format settings, Endianness              : Big
Codec ID                                 : A_AC3
Duration                                 : 1h 38mn
Bit rate mode                            : Constant
Bit rate                                 : 192 Kbps
Channel count                            : 2 channels
Channel positions                        : Front: L R
Sampling rate                            : 48.0 KHz
Bit depth                                : 16 bits
Compression mode                         : Lossy
Stream size                              : 135 MiB (4%)
Language                                 : Russian
Default                                  : Yes
Forced                                   : Yes

Audio #2
ID                                       : 3
Format                                   : AC-3
Format/Info                              : Audio Coding 3
Mode extension                           : CM (complete main)
Format settings, Endianness              : Big
Codec ID                                 : A_AC3
Duration                                 : 1h 38mn
Bit rate mode                            : Constant
Bit rate                                 : 384 Kbps
Channel count                            : 6 channels
Channel positions                        : Front: L C R, Side: L R, LFE
Sampling rate                            : 48.0 KHz
Bit depth                                : 16 bits
Compression mode                         : Lossy
Stream size                              : 270 MiB (9%)
Language                                 : English
Default                                  : No
Forced                                   : No

Menu
00:00:00.000                             : en:Chapter1
00:28:05.000                             : en:Chapter2
01:03:10.000                             : en:Chapter3
01:36:07.000                             : en:Chapter4













Вернуться к началу
 Профиль  
 
   Похожие торренты   Автор   Торрент   Размер 
В этой теме нет новых непрочитанных сообщений. Знак почёта / Badge of Honor (Агустин) [триллер, драма, криминал, 2015] WEB-DLRip, Mvo

Dracon

1 | 0

1.46 ГБ

В этой теме нет новых непрочитанных сообщений. Маньяк-полицейский 3: Знак молчания / Maniac Cop 3: Badge of Silence [ужасы, боевик, 1993] BDRip-AVC, Avo

salma3

26 | 21

744.16 МБ

В этой теме нет новых непрочитанных сообщений. Родина / Homeland [05х01-12 из 12] (Кларк Джонсон, Майкл Куэста, Дэниэл Эттиэс) [2015, Детектив, Драма, Криминал, Триллер, WEB-DLRip 720p | LostFilm]

Dracon

3 | 9

18.53 ГБ

В этой теме нет новых непрочитанных сообщений. Родина / Homeland [05х01-05 из 12] (Кларк Джонсон, Майкл Куэста, Дэниэл Эттиэс) [2015, Детектив, Драма, Криминал, Триллер, WEB-DLRip 720p | LostFilm]

Nickolas3435

106 | 165

8.44 ГБ

В этой теме нет новых непрочитанных сообщений. Честь семьи Прицци / Prizzi's Honor [драма, мелодрама, криминал, 1985] BDRip 720p, Mvo

salma3

18 | 4

8.81 ГБ

В этой теме нет новых непрочитанных сообщений. Честь и ярость 2: Враждебный захват / Rage and Honor II [боевик, триллер, драма, криминал, 1993] DVDRip, Mvo [Первый канал]

salma3

81 | 25

1.46 ГБ

В этой теме нет новых непрочитанных сообщений. 7 Кейсов / 7 Cases [триллер, драма, криминал, 2015] WEB-DLRip, Dvo

salma3

580 | 74

1.39 ГБ


Начать новую тему Ответить на тему  [ 1 сообщение ] 




Для Мосгорсуда, Роскомнадзора и рекламодателей:: mosgorsud-torrent[собачка]yandex.ru
cron