Торрент файл
скачать торрент магнет ссылка Добавлен: 24 июн 2015, 10:49
Размер: 4.3 ГБ
Сидеров: 2
Личеров: 0
Автор

СообщениеДобавлено: 24 июн 2015, 10:49 

Не в сети
Зам. Админа
Аватара пользователя
Дата регистрации:
02 дек 2010, 12:39
Спасибо: 12652 / 214
Сообщения: 28010
Год выхода: 2014
Жанр: Триллер, Криминал, Комедия
Режиссер: Крив Стендерс
В ролях: Таня Чэмберс, Лоуренс Малкин, Шеа Сталлингс Актеры: Саймон Пегг, Стив Ле Маркванд, Алиси Брага, Тереза Палмер, Салливан Степлтон, Люк Хемсворт, Каллэн Мулвей, Брайан Браун, Антонио Баримен, Дэниэл Беренджер

О фильме:
Молодая женщина, живущая в австралийском городке, является нитью, которая связывает три истории - убийства, шантажа и мести.

Качество: BDRip [720p]
Видео: MPEG-4 AVC, 1280x536, 23.976 fps, ~5409 Kbit/s
Аудио #1: АС3, 48000 Hz, 6 каналов, 384 kbit/s [Русский] Любительский многоголосный BadCatStudio
Аудио #2: С3, 48000 Hz, 2 канала, 384 kbit/s [Русский] Любительский одноголосный PashaUp
Аудио #3: АС3, 48000 Hz, 6 каналов, 640 kbit/s [Английский]
Продолжительность: 01:30:22
Перевод: Любительский многоголосный, Любительский одноголосный
Субтитры: Русские, английские

Присутствует ненормативная лексика

Формат                                   : Matroska
Версия формата                           : Version 2
Размер файла                             : 4,30 Гбайт
Продолжительность                        : 1 ч. 30 м.
Общий поток                              : 6816 Кбит/сек
Название фильма                          : Kill Me Three Times (2014)
Дата кодирования                         : UTC 2015-06-23 05:20:56
Программа кодирования                    : mkvmerge v7.8.0 ('River Man') 64bit built on Mar 27 2015 16:31:37
Библиотека кодирования                   : libebml v1.3.1 + libmatroska v1.4.2

Видео
Идентификатор                            : 1
Формат                                   : AVC
Формат/Информация                        : Advanced Video Codec
Профиль формата                          : High@L4.1
Параметр CABAC формата                   : Да
Параметр ReFrames формата                : 5 кадров
Идентификатор кодека                     : V_MPEG4/ISO/AVC
Продолжительность                        : 1 ч. 30 м.
Битрейт                                  : 5409 Кбит/сек
Ширина                                   : 1280 пикселей
Высота                                   : 536 пикселей
Соотношение сторон                       : 2,40:1
Режим частоты кадров                     : Постоянный
Частота кадров                           : 23,976 кадра/сек
Цветовое пространство                    : YUV
Субдискретизация насыщенности            : 4:2:0
Битовая глубина                          : 8 бит
Тип развёртки                            : Прогрессивная
Бит/(Пиксели*Кадры)                      : 0.329
Размер потока                            : 3,33 Гбайт (77%)
Библиотека кодирования                   : x264 core 146 r2538 121396c
Настройки программы                      : cabac=1 / ref=5 / deblock=1:0:0 / analyse=0x3:0x133 / me=umh / subme=7 / psy=1 / psy_rd=1.00:0.00 / mixed_ref=1 / me_range=16 / chroma_me=1 / trellis=1 / 8x8dct=1 / cqm=0 / deadzone=21,11 / fast_pskip=0 / chroma_qp_offset=-2 / threads=18 / lookahead_threads=3 / sliced_threads=0 / nr=0 / decimate=1 / interlaced=0 / bluray_compat=0 / constrained_intra=0 / bframes=3 / b_pyramid=2 / b_adapt=1 / b_bias=0 / direct=1 / weightb=1 / open_gop=0 / weightp=2 / keyint=250 / keyint_min=23 / scenecut=40 / intra_refresh=0 / rc_lookahead=40 / rc=2pass / mbtree=1 / bitrate=5409 / ratetol=1.0 / qcomp=0.60 / qpmin=0 / qpmax=69 / qpstep=4 / cplxblur=20.0 / qblur=0.5 / ip_ratio=1.40 / aq=1:1.00
Язык                                     : English
Default                                  : Да
Forced                                   : Нет

Аудио #1
Идентификатор                            : 2
Формат                                   : AC-3
Формат/Информация                        : Audio Coding 3
Расширение режима                        : CM (complete main)
Параметр Endianness формата              : Big
Идентификатор кодека                     : A_AC3
Продолжительность                        : 1 ч. 30 м.
Вид битрейта                             : Постоянный
Битрейт                                  : 384 Кбит/сек
Каналы                                   : 6 каналов
Расположение каналов                     : Front: L C R, Side: L R, LFE
Частота                                  : 48,0 КГц
Метод сжатия                             : С потерями
Размер потока                            : 248 Мбайт (6%)
Заголовок                                : AC3 / 5.1 / 384 kbps / MVO, BadCatStudio
Язык                                     : Russian
Default                                  : Да
Forced                                   : Нет

Аудио #2
Идентификатор                            : 3
Формат                                   : AC-3
Формат/Информация                        : Audio Coding 3
Расширение режима                        : CM (complete main)
Параметр Endianness формата              : Big
Идентификатор кодека                     : A_AC3
Продолжительность                        : 1 ч. 30 м.
Вид битрейта                             : Постоянный
Битрейт                                  : 384 Кбит/сек
Каналы                                   : 2 канала
Расположение каналов                     : Front: L R
Частота                                  : 48,0 КГц
Метод сжатия                             : С потерями
Размер потока                            : 248 Мбайт (6%)
Заголовок                                : AC3 / 2.0 / 384 kbps / VO, PashaUp
Язык                                     : Russian
Default                                  : Нет
Forced                                   : Нет

Аудио #3
Идентификатор                            : 4
Формат                                   : AC-3
Формат/Информация                        : Audio Coding 3
Расширение режима                        : CM (complete main)
Параметр Endianness формата              : Big
Идентификатор кодека                     : A_AC3
Продолжительность                        : 1 ч. 30 м.
Вид битрейта                             : Постоянный
Битрейт                                  : 640 Кбит/сек
Каналы                                   : 6 каналов
Расположение каналов                     : Front: L C R, Side: L R, LFE
Частота                                  : 48,0 КГц
Метод сжатия                             : С потерями
Размер потока                            : 414 Мбайт (9%)
Заголовок                                : AC3 / 5.1 / 640 kbps / Original
Язык                                     : English
Default                                  : Нет
Forced                                   : Нет

Текст #1
Идентификатор                            : 5
Формат                                   : UTF-8
Идентификатор кодека                     : S_TEXT/UTF8
Идентификатор кодека/Информация          : UTF-8 Plain Text
Заголовок                                : Full
Язык                                     : Russian
Default                                  : Нет
Forced                                   : Нет

Текст #2
Идентификатор                            : 6
Формат                                   : UTF-8
Идентификатор кодека                     : S_TEXT/UTF8
Идентификатор кодека/Информация          : UTF-8 Plain Text
Заголовок                                : Full
Язык                                     : English
Default                                  : Нет
Forced                                   : Нет

Меню
00:00:00.000                             : en:00:00:00.000
00:07:29.366                             : en:00:07:29.366
00:13:41.571                             : en:00:13:41.571
00:23:19.732                             : en:00:23:19.732
00:30:45.385                             : en:00:30:45.385
00:35:43.850                             : en:00:35:43.850
00:44:16.863                             : en:00:44:16.863
00:49:52.364                             : en:00:49:52.364
00:57:46.546                             : en:00:57:46.546
01:02:43.760                             : en:01:02:43.760
01:12:23.297                             : en:01:12:23.297
01:23:49.024                             : en:01:23:49.024







Вернуться к началу
 Профиль  
 
   Похожие торренты   Автор   Торрент   Размер 
В этой теме нет новых непрочитанных сообщений. Убей их всех / Kill 'em All [Боевик, триллер, криминал, 2012] BDRip 720p, Dvo [НТВ+]

salma3

69 | 36

3.75 ГБ

В этой теме нет новых непрочитанных сообщений. Убей меня снова / Kill Me Again [боевик, триллер, драма, криминал, 1989] BDRip 720p, Dvo+Mvo+Sub

salma3

81 | 41

4.93 ГБ

В этой теме нет новых непрочитанных сообщений. Убей меня снова / Kill Me Again [Боевик, триллер, драма, криминал, 1989] BDRip, Mvo

salma3

0 | 1

1.45 ГБ

В этой теме нет новых непрочитанных сообщений. Убей своих друзей / Kill Your Friends [триллер, комедия, криминал, 2015] HDRip, Dvo

salma3

105 | 6

1.45 ГБ

В этой теме нет новых непрочитанных сообщений. Убьём жену Уорда / Let's Kill Ward's Wife [Комедия, триллер, драма, 2014] BDRip 720p, Avo

marya111

108 | 7

2.8 ГБ

В этой теме нет новых непрочитанных сообщений. Убей за меня / Kill for Me [триллер, драма, 2016] WEBDLRip, Mvo

salma3

149 | 31

1.37 ГБ

В этой теме нет новых непрочитанных сообщений. Убей или умри / Kill or Be Killed [вестерн, ужасы, триллер, детектив, 2015] HDRip, Avo

salma3

77 | 6

1.23 ГБ


Начать новую тему Ответить на тему  [ 1 сообщение ] 




Для Мосгорсуда, Роскомнадзора и рекламодателей:: mosgorsud-torrent[собачка]yandex.ru
cron