Торрент файл
скачать торрент магнет ссылка Добавлен: 18 июн 2015, 15:46
Размер: 3.53 ГБ
Сидеров: 42
Личеров: 2
Автор

СообщениеДобавлено: 18 июн 2015, 15:46 

В сети
Супермодератор
Аватара пользователя
Дата регистрации:
15 фев 2012, 16:44
Возраст: 29
Спасибо: 7339 / 2147
Сообщения: 75613
Год выхода: 1984
Жанр: драма, мелодрама
Режиссер: Улу Гросбард
В ролях: Роберт Де Ниро, Мэрил Стрип, Харви Кейтель, Джейн Качмарек, Джордж Мартин, Дэвид Кленнон, Дайэнн Уист, Виктор Арго, Уайли Эрл, Джесси Брэдфорд

О фильме:
Встретившись в толчее книжного магазина в канун Рождества, они попросту сталкиваются друг с другом, собирают рассыпавшиеся по полу покупки и расходятся каждый своим путем. Но судьба сталкивает их снова и снова. С таких встреч и начинается эта история.



Страна: США
Студия: Paramount Pictures
Продолжительность: 01:46:52
Перевод: Профессиональный (многоголосый, закадровый) + Профессиональный (двухголосый, закадровый) Премьер Видео + Авторский (Андрей Гаврилов)

Файл
Формат: Matroska
Видео: 1280x720 at 23.976 fps, MPEG-4 AVC, ~4000 kbps avg
Aудио#1: Russian: 48 kHz, AC3, 2/0 (L,R) ch, ~192.00 kbps avg |Многоголосый закадровый|
Aудио#2: Russian: 48 kHz, AC3, 2/0 (L,R) ch, ~192.00 kbps avg |Двухголосый закадровый, Премьер Видео|
Aудио#3: Russian: 48 kHz, AC3, 2/0 (L,R) ch, ~192.00 kbps avg |Авторский, А.Гаврилов|
Aудио#4: English: 48 kHz, АAC, 2/0 (L,R) ch, ~160.00 kbps avg
Субтитры: English

General
Unique ID : 253657623305505864693907737189027275473 (0xBED4AE6564517D60B972DC2C3C15E2D1)
Complete name : Vlublennye.1984.WEB-DL.720p.mkv
Format : Matroska
Format version : Version 2
File size : 3.53 GiB
Duration : 1h 46mn
Overall bit rate : 4 724 Kbps
Encoded date : UTC 2015-06-14 17:10:07
Writing application : mkvmerge v3.3.0 ('Language') built on Mar 24 2010 14:59:24
Writing library : libebml v0.8.0 + libmatroska v0.9.0

Video
ID : 1
Format : AVC
Format/Info : Advanced Video Codec
Format profile : High@L3.1
Format settings, CABAC : No
Format settings, ReFrames : 2 frames
Codec ID : V_MPEG4/ISO/AVC
Duration : 1h 46mn
Width : 1 280 pixels
Height : 720 pixels
Display aspect ratio : 16:9
Frame rate mode : Constant
Frame rate : 23.976 fps
Color space : YUV
Chroma subsampling : 4:2:0
Bit depth : 8 bits
Scan type : Progressive
Title : Falling.In.Love.1984.720p.WEB-DL.AAC2.0.H264-FGT
Language : English
Default : No
Forced : No
Color primaries : BT.709
Transfer characteristics : BT.709
Matrix coefficients : BT.709
Color range : Limited

Audio #1
ID : 2
Format : AC-3
Format/Info : Audio Coding 3
Mode extension : CM (complete main)
Format settings, Endianness : Big
Codec ID : A_AC3
Duration : 1h 46mn
Bit rate mode : Constant
Bit rate : 192 Kbps
Channel(s) : 2 channels
Channel positions : Front: L R
Sampling rate : 48.0 KHz
Bit depth : 16 bits
Compression mode : Lossy
Stream size : 147 MiB (4%)
Title : ПМ
Language : Russian
Default : No
Forced : Yes

Audio #2
ID : 3
Format : AC-3
Format/Info : Audio Coding 3
Mode extension : CM (complete main)
Format settings, Endianness : Big
Codec ID : A_AC3
Duration : 1h 46mn
Bit rate mode : Constant
Bit rate : 192 Kbps
Channel(s) : 2 channels
Channel positions : Front: L R
Sampling rate : 48.0 KHz
Bit depth : 16 bits
Compression mode : Lossy
Stream size : 147 MiB (4%)
Title : ПД (Премьер Видео)
Language : Russian
Default : No
Forced : Yes

Audio #3
ID : 4
Format : AC-3
Format/Info : Audio Coding 3
Mode extension : CM (complete main)
Format settings, Endianness : Big
Codec ID : A_AC3
Duration : 1h 46mn
Bit rate mode : Constant
Bit rate : 192 Kbps
Channel(s) : 2 channels
Channel positions : Front: L R
Sampling rate : 48.0 KHz
Bit depth : 16 bits
Compression mode : Lossy
Stream size : 147 MiB (4%)
Title : АП (Гаврилов)
Language : Russian
Default : Yes
Forced : Yes

Audio #4
ID : 5
Format : AAC
Format/Info : Advanced Audio Codec
Format profile : LC
Codec ID : A_AAC
Duration : 1h 46mn
Channel(s) : 2 channels
Channel positions : Front: L R
Sampling rate : 48.0 KHz
Compression mode : Lossy
Title : Original
Language : English
Default : No
Forced : No

Text
ID : 6
Format : UTF-8
Codec ID : S_TEXT/UTF8
Codec ID/Info : UTF-8 Plain Text
Language : English
Default : No
Forced : No

Menu
00:00:00.000 : en:Christmas Shopping
00:12:13.000 : en:The Wrong Presents
00:19:07.000 : en:Chance Meeting
00:27:00.000 : en:Introductions
00:34:21.000 : en:Taking The Train Together
00:40:14.000 : en:Enjoying Each Other
00:47:21.000 : en:Feeling Guilty
00:56:01.000 : en:A Relationship
01:05:58.000 : en:Sorrow
01:11:31.000 : en:Frank Confesses
01:21:46.000 : en:Leaving Home
01:31:06.000 : en:Christmas In New York
01:36:35.000 : en:Another Chance Meeting
01:41:04.000 : en:Destiny


_________________
Проголосуй за трекер Открытый торрент трекер - RUS-MEDIA.ORG

Проголосуй Открытый торрент трекер - RUS-MEDIA.ORG


Вернуться к началу
 Профиль Отправить личное сообщение  
 
   Похожие торренты   Автор   Торрент   Размер 
В этой теме нет новых непрочитанных сообщений. Невозможно не влюбиться / Can't Help Falling in Love [мелодрама, 2017] WEBDLRip, Mvo

salma3

23 | 21

1.37 ГБ

В этой теме нет новых непрочитанных сообщений. Влюбленные и медведь / Two Lovers and a Bear [Драма, мелодрама, 2016] WEB-DL 720p, Mvo [iTunes]

salma3

34 | 6

3.25 ГБ

В этой теме нет новых непрочитанных сообщений. Невозможно не влюбиться / Can't Help Falling in Love [мелодрама, 2017] WEBRip, Mvo [GreenРай Studio]

salma3

37 | 24

1.37 ГБ

В этой теме нет новых непрочитанных сообщений. Несмотря на падающий снег / Despite the Falling Snow [триллер, драма, мелодрама, детектив, 2016] BDRip 720p, Mvo

salma3

35 | 1

4.56 ГБ

В этой теме нет новых непрочитанных сообщений. Влюбленные психопаты / Psychos in Love [ужасы, комедия, 1987] BDRip, Avo

salma3

0 | 0

1.45 ГБ

В этой теме нет новых непрочитанных сообщений. Влюбленные психопаты / Psychos in Love [ужасы, комедия, 1987] BDRemux 1080р, Avo

salma3

0 | 1

23.74 ГБ

В этой теме нет новых непрочитанных сообщений. Влюбленные психопаты / Psychos in Love [ужасы, комедия, 1987] BDRemux 1080р, Avo

salma3

0 | 11

22.11 ГБ


Начать новую тему Ответить на тему  [ 1 сообщение ] 




Для Мосгорсуда, Роскомнадзора и рекламодателей:: mosgorsud-torrent[собачка]yandex.ru
cron