Торрент файл
скачать торрент магнет ссылка Добавлен: 12 июн 2015, 14:43
Размер: 7.35 ГБ
Сидеров: 27
Личеров: 2
Автор

СообщениеДобавлено: 12 июн 2015, 14:43 

Не в сети
Супермодератор
Аватара пользователя
Дата регистрации:
15 фев 2012, 16:44
Возраст: 28
Спасибо: 7223 / 2147
Сообщения: 67788
Год выхода: 1992
Жанр: триллер, драма, мелодрама, криминал
Режиссер: Нил Джордан

В ролях: Стивен Ри, Миранда Ричардсон, Джей Дэвидсон, Форест Уитакер, Эдриан Данбар, Бреффни МакКенна, Джо Савино, Бёрди Суини, Андре Бернард, Джим Бродбент

О фильме:
Британский солдат Джоди, попавший в плен к боевикам Ирландской республиканской армии, подружился с одним из своих тюремщиков Фергюсом. Но их дружба не могла кончиться ничем, кроме трагедии.

Получив приказ расстрелять пленника, Фергюс был вынужден подчиниться. Больше он не хочет никого убивать и, покинув бывших товарищей по оружию, уезжает в Лондон. Фергюс должен выполнить последнюю волю Джоди и разыскать его любимую девушку Дил, которую видел на фотографии.

Днем эта неотразимо притягательная девушка работает парикмахером, а по вечерам поет в баре. С первой же встречи Фергюс и Дил полюбили друг друга. Она ничего не знает о прошлом Фергюса. Но и Фергюс не знает о Дил кое-что очень важное…



Страна: Великобритания, Япония
Студия: British Screen Productions, Channel Four Films, Eurotrustees
Продолжительность: 01:51:57
Перевод: Профессиональный (двухголосый, закадровый) InterVideo + Профессиональный (двухголосый, закадровый) Екатеринбург Арт + Авторский (А.Михалёв)

Рип от whalekilla

Файл
Формат: Matroska
Видео: 1920x816 at 24.000 fps, x264@L4.1, ~8379 kbps avg
Aудио#1: Russian: 48 kHz, AC3, 2 (L,R) ch, ~192.00 kbps avg |Двухголосый закадровый, InterVideo|
Аудио#2: Russian: 48 kHz, AC3, 2 (L,R) ch, ~192.00 kbps avg |Двухголосый закадровый, Екатеринбург Арт|
Аудио#3: Russian: 48 kHz, AC3, 2 (L,R) ch, ~192.00 kbps avg |Авторский, А.Михалёв|
Aудио#4: English: 48 kHz, AC3, 3/2 (L,C,R,l,r) + LFE ch, ~448.00 kbps avg
Субтитры: English, French, Spanish

Общее
Уникальный идентификатор : 187919301923689881646186541174467953110 (0x8D5FF0E9FBFF25F0BCDD6EAB4C1D81D6)
Полное имя : The.Crying.Game.1992.BDRip.(1080p).mkv
Формат : Matroska
Версия формата : Version 4 / Version 2
Размер файла : 7,35 Гбайт
Продолжительность : 1 ч. 51 м.
Общий поток : 9401 Кбит/сек
Название фильма : The Crying Game (1992)
Дата кодирования : UTC 2015-06-11 08:04:20
Программа кодирования : mkvmerge v6.9.1 ('Blue Panther') 64bit built on Apr 18 2014 18:23:38
Библиотека кодирования : libebml v1.3.0 + libmatroska v1.4.1

Видео
Идентификатор : 1
Формат : AVC
Формат/Информация : Advanced Video Codec
Профиль формата : High@L4.1
Параметр CABAC формата : Да
Параметр ReFrames формата : 5 кадров
Идентификатор кодека : V_MPEG4/ISO/AVC
Продолжительность : 1 ч. 51 м.
Битрейт : 8379 Кбит/сек
Ширина : 1920 пикселей
Высота : 816 пикселей
Соотношение сторон : 2,35:1
Режим частоты кадров : Постоянный
Частота кадров : 24,000 кадра/сек
Цветовое пространство : YUV
Субдискретизация насыщенности : 4:2:0
Битовая глубина : 8 бит
Тип развёртки : Прогрессивная
Бит/(Пиксели*Кадры) : 0.223
Размер потока : 6,41 Гбайт (87%)
Заголовок : The Crying Game (1992)
Библиотека кодирования : x264 core 130 r2273 b3065e6
Настройки программы : cabac=1 / ref=5 / deblock=1:-3:-3 / analyse=0x3:0x133 / me=umh / subme=10 / psy=1 / psy_rd=1.00:0.10 / mixed_ref=1 / me_range=32 / chroma_me=1 / trellis=2 / 8x8dct=1 / cqm=0 / deadzone=21,11 / fast_pskip=1 / chroma_qp_offset=-3 / threads=6 / lookahead_threads=1 / sliced_threads=0 / nr=0 / decimate=1 / interlaced=0 / bluray_compat=0 / constrained_intra=0 / bframes=8 / b_pyramid=2 / b_adapt=2 / b_bias=0 / direct=3 / weightb=1 / open_gop=0 / weightp=2 / keyint=250 / keyint_min=23 / scenecut=40 / intra_refresh=0 / rc_lookahead=60 / rc=2pass / mbtree=1 / bitrate=8379 / ratetol=1.0 / qcomp=0.60 / qpmin=0 / qpmax=69 / qpstep=4 / cplxblur=20.0 / qblur=0.5 / ip_ratio=1.40 / aq=1:1.00
Язык : English
Default : Да
Forced : Нет

Аудио #1
Идентификатор : 2
Формат : AC-3
Формат/Информация : Audio Coding 3
Расширение режима : CM (complete main)
Параметр Endianness формата : Big
Идентификатор кодека : A_AC3
Продолжительность : 1 ч. 51 м.
Вид битрейта : Постоянный
Битрейт : 192 Кбит/сек
Каналы : 2 канала
Расположение каналов : Front: L R
Частота : 48,0 КГц
Битовая глубина : 16 бит
Метод сжатия : С потерями
Размер потока : 154 Мбайт (2%)
Заголовок : AC3, 2 ch, 192 Kbps, MVO, 'InterVideo'
Язык : Russian
Default : Да
Forced : Нет

Аудио #2
Идентификатор : 3
Формат : AC-3
Формат/Информация : Audio Coding 3
Расширение режима : CM (complete main)
Параметр Endianness формата : Big
Идентификатор кодека : A_AC3
Продолжительность : 1 ч. 51 м.
Вид битрейта : Постоянный
Битрейт : 192 Кбит/сек
Каналы : 2 канала
Расположение каналов : Front: L R
Частота : 48,0 КГц
Битовая глубина : 16 бит
Метод сжатия : С потерями
Размер потока : 154 Мбайт (2%)
Заголовок : AC3, 2 ch, 192 Kbps, MVO, 'EA'
Язык : Russian
Default : Нет
Forced : Нет

Аудио #3
Идентификатор : 4
Формат : AC-3
Формат/Информация : Audio Coding 3
Расширение режима : CM (complete main)
Параметр Endianness формата : Big
Идентификатор кодека : A_AC3
Продолжительность : 1 ч. 51 м.
Вид битрейта : Постоянный
Битрейт : 192 Кбит/сек
Каналы : 2 канала
Расположение каналов : Front: L R
Частота : 48,0 КГц
Битовая глубина : 16 бит
Метод сжатия : С потерями
Размер потока : 154 Мбайт (2%)
Заголовок : AC3, 2 ch, 192 Kbps, А. Михалёв
Язык : Russian
Default : Нет
Forced : Нет

Аудио #4
Идентификатор : 5
Формат : AC-3
Формат/Информация : Audio Coding 3
Расширение режима : CM (complete main)
Параметр Endianness формата : Big
Идентификатор кодека : A_AC3
Продолжительность : 1 ч. 51 м.
Вид битрейта : Постоянный
Битрейт : 448 Кбит/сек
Каналы : 6 каналов
Расположение каналов : Front: L C R, Side: L R, LFE
Частота : 48,0 КГц
Битовая глубина : 16 бит
Метод сжатия : С потерями
Размер потока : 359 Мбайт (5%)
Заголовок : AC3, 6 ch, 448 Kbps, Original
Язык : English
Default : Нет
Forced : Нет

Текст #1
Идентификатор : 6
Формат : UTF-8
Идентификатор кодека : S_TEXT/UTF8
Идентификатор кодека/Информация : UTF-8 Plain Text
Язык : English
Default : Нет
Forced : Нет

Текст #2
Идентификатор : 7
Формат : UTF-8
Идентификатор кодека : S_TEXT/UTF8
Идентификатор кодека/Информация : UTF-8 Plain Text
Язык : French
Default : Нет
Forced : Нет

Текст #3
Идентификатор : 8
Формат : UTF-8
Идентификатор кодека : S_TEXT/UTF8
Идентификатор кодека/Информация : UTF-8 Plain Text
Язык : Spanish
Default : Нет
Forced : Нет

Текст #4
Идентификатор : 9
Формат : UTF-8
Идентификатор кодека : S_TEXT/UTF8
Идентификатор кодека/Информация : UTF-8 Plain Text
Язык : Portuguese
Default : Нет
Forced : Нет

Текст #5
Идентификатор : 10
Формат : UTF-8
Идентификатор кодека : S_TEXT/UTF8
Идентификатор кодека/Информация : UTF-8 Plain Text
Язык : Italian
Default : Нет
Forced : Нет

Текст #6
Идентификатор : 11
Формат : UTF-8
Идентификатор кодека : S_TEXT/UTF8
Идентификатор кодека/Информация : UTF-8 Plain Text
Язык : Dutch
Default : Нет
Forced : Нет

Меню
00:00:00.000 : en:Main Titles
00:02:19.630 : en:Carnival Kidnapping
00:06:08.375 : en:I.R.A. Hospitality
00:12:21.090 : en:She's My Type
00:18:57.710 : en:A Helping Hand
00:23:03.875 : en:The Scorpion and the Frog
00:27:28.835 : en:Do Something For Me
00:32:05.125 : en:A Fast Game
00:38:29.620 : en:Meeting Dil
00:42:33.830 : en:Giving Looks
00:46:19.040 : en:Everybody Wants Something
00:50:09.330 : en:Getting His Goat
00:54:29.580 : en:Discussing Joy
00:59:18.495 : en:Going the Distance
01:02:15.745 : en:Surprise Package
01:05:29.285 : en:She's No Lady
01:11:23.995 : en:Hey, Jude
01:16:39.370 : en:Ever So Nice
01:19:44.620 : en:A Legitimate Target
01:24:17.410 : en:Drawing the Line
01:27:27.200 : en:Becoming a Man
01:30:55.745 : en:Don't Leave Me
01:35:37.995 : en:Do You Like Me Now?
01:42:00.865 : en:Taking the Blame
01:48:05.865 : en:End Credits


_________________
Проголосуй за трекер Открытый торрент трекер - RUS-MEDIA.ORG

Проголосуй Открытый торрент трекер - RUS-MEDIA.ORG


Вернуться к началу
 Профиль Отправить личное сообщение  
 
   Похожие торренты   Автор   Торрент   Размер 
В этой теме нет новых непрочитанных сообщений. Ночная игра / Night Game [триллер, драма, криминал, 1989] BDRip, Dvo [НТВ+]

salma3

37 | 14

1.46 ГБ

В этой теме нет новых непрочитанных сообщений. Игра Кауфмана / Kaufman's Game [триллер, криминал, 2017] HDRip 1080p, Mvo [GreenРай Studio]

salma3

0 | 73

4.74 ГБ

В этой теме нет новых непрочитанных сообщений. Плачущий убийца / Crying Freeman [боевик, триллер, криминал, 1995] BDRip 1080p, Mvo

salma3

39 | 20

7.76 ГБ

В этой теме нет новых непрочитанных сообщений. Божьи коровки / Ladybugs [комедия, семейный, спорт, 1992] BDRip 1080p, 2Dvo+Sub

salma3

19 | 4

10.09 ГБ

В этой теме нет новых непрочитанных сообщений. Игра без правил / Fair Game [триллер, драма, биография, 2010] BDRip 720p, Dub+Sub

salma3

39 | 19

4.85 ГБ

В этой теме нет новых непрочитанных сообщений. Простые люди / Simple Men [драма, мелодрама, криминал, 1992] BDRip 1080p, Mvo

salma3

11 | 6

7.15 ГБ

В этой теме нет новых непрочитанных сообщений. Игра Кауфмана / Kaufman's Game [триллер, криминал, 2017] WEBRip, Mvo

salma3

118 | 39

1.34 ГБ


Начать новую тему Ответить на тему  [ 1 сообщение ] 




Для Мосгорсуда, Роскомнадзора и рекламодателей:: mosgorsud-torrent[собачка]yandex.ru
cron